TORRENTS43.COM

Скачать Грехи молодости / Peccati di gioventu (1975) DVDRip


Грехи молодости / Peccati di gioventu (1975) DVDRip
Русское название: Грехи молодости
Оригинальное название: Peccati di gioventu
Год выпуска: 1975
Жанр: Эротика

Описание фильма:
Отец оставляет на вилле родную дочь и новую жену .Падчерица и мачеха в отношениях нейтральных, но первая слегка ревнует вторую к отцу. И тогда ей приходит в голову чудная мысль как-нибудь ликвидировать свою новую маму.

Режиссер: Сильвио Амадио
Актеры: Глория Гвида, Дагмар Лассандер, Фред Робсам, Дэна Гиа

Продолжительность: 01:25:20
Перевод: Русский одноголосый закадровый (авторский)



Видеокодек: Xvid
Битрейт видео: ~2061kb/s
Размер кадра: 704x432
Качество видео: DVDRip
Аудиокодек: AC3
Битрейт аудио1: 192kb/s, 48khz, 2ch (русский)
Битрейт аудио2: 192kb/s, 48khz, 2ch (итальянский)

Сэмпл: Ссылка

Mediainfo

Общее
Полное имя : E:\emule\Grehi\Grehi_molodosti.1972.DVDRip.avi
Формат : AVI
Формат/Информация : Audio Video Interleave
Размер файла : 1,47 Гбайт
Продолжительность : 1 ч. 25 м.
Общий поток : 2459 Кбит/сек
Программа кодирования : VirtualDubMod 1.5.10.2 (build 2540/release)
Библиотека кодирования : VirtualDubMod build 2540/release

Видео
Идентификатор : 0
Формат : MPEG-4 Visual
Профиль формата : Advanced Simple@L5
Параметр BVOP формата : 1
Параметр QPel формата : Нет
Параметр GMC формата : Без точки перехода
Параметр матрицы формата : Default (MPEG)
Идентификатор кодека : XVID
Идентификатор кодека/Подсказка : XviD
Продолжительность : 1 ч. 25 м.
Битрейт : 2061 Кбит/сек
Ширина : 704 пикс.
Высота : 432 пикс.
Соотношение сторон : 1,630
Частота кадров : 25,000 кадр/сек
Цветовое пространство : YUV
Подвыборка цветности : 4:2:0
Битовая глубина : 8 бит
Тип развёртки : Прогрессивная
Метод сжатия : С потерями
Бит/(Пиксели*Кадры) : 0.271
Размер потока : 1,23 Гбайт (84%)
Библиотека кодирования : XviD 1.2.1 (UTC 2008-12-04)

Аудио #1
Идентификатор : 1
Формат : AC-3
Формат/Информация : Audio Coding 3
Расширение режима : CM (complete main)
Идентификатор кодека : 2000
Продолжительность : 1 ч. 25 м.
Вид битрейта : Постоянный
Битрейт : 192 Кбит/сек
Канал(ы) : 2 канала(ов)
Расположение каналов : Front: L R
Частота : 48,0 КГц
Битовая глубина : 16 бит
Метод сжатия : С потерями
Размер потока : 117 Мбайт (8%)
Выравнивание : Соединение по промежуткам
Продолжительность промежутка : 40 мс. (1,00 видеокадр)
Время предзагрузки промежутка : 512 ms

Аудио #2
Идентификатор : 2
Формат : AC-3
Формат/Информация : Audio Coding 3
Расширение режима : CM (complete main)
Идентификатор кодека : 2000
Продолжительность : 1 ч. 25 м.
Вид битрейта : Постоянный
Битрейт : 192 Кбит/сек
Канал(ы) : 2 канала(ов)
Расположение каналов : Front: L R
Частота : 48,0 КГц
Битовая глубина : 16 бит
Метод сжатия : С потерями
Размер потока : 117 Мбайт (8%)
Выравнивание : Разделение по промежуткам
Продолжительность промежутка : 40 мс. (1,00 видеокадр)
Время предзагрузки промежутка : 500 ms
Скриншоты


Смотреть Online

http://moonwalk.cc/video/d3fb4b7981cb01c9/iframe
Детали торрента:
Название:Грехи молодости / Peccati di gioventu (1975) DVDRip
Дата добавления:05 Апр 2011 06:50:16
Размер:1,47 GB
Раздают:3
Качают:0
Форум:Грайндхаус

All rights reserved © 2015-2018