TORRENTS43.COM

Скачать George Bellas - The Dawn Of Time (2010) [FLAC|Lossless]<Progressive, Melodic Guirar Rock,Neo-Classic>


George Bellas - The Dawn Of Time (2010)
Год: 2010
Жанр: Progressive, Melodic Guirar Rock,Neo-Classic
Продолжительность: 01:19:55

Кодек: FLAC
Битрейт: Lossless

Трек лист:
01. Cyclone (3:36)
02. Seeding the universe (3:38)
03. Let there be light (4:27)
04. The dawn of time (4:37)
05. Machine man (4:44)
06. Voyage to triangulum (4:22)
07. Mysterious light (4:31)
08. Mystical dream (3:08)
09. Glimmering stardust (5:49)
10. Electromagnetic (3:52)
11. Genesis of life (3:54)
12. Carbon creature (4:50)
13. Suns of andromeda (2:56)
14. We are not alone (4:09)
15. Nightmare awoken (6:47)
16. Primordial atom (2:51)
17. Metropolis (4:27)
18. Always at my side (3:25)
19. The angels are calling (3:52)

Отчёт ЕАС:

Код:

Exact Audio Copy V0.99 prebeta 5 from 4. May 2009

Отчёт EAC об извлечении, выполненном 17. марта 2011, 1:44

George Bellas / The Dawn Of Time

Дисковод: PLEXTOR DVDR   PX-712A   Adapter: 0  ID: 0

Режим чтения                 : Достоверность
Использование точного потока : Да
Отключение кэша аудио        : Да
Использование указателей C2  : Нет

Коррекция смещения при чтении                     : 30
Способность читать области Lead-in и Lead-out     : Нет
Заполнение пропущенных сэмплов тишиной            : Да
Удаление блоков с тишиной в начале и конце        : Нет
При вычислениях CRC использовались нулевые сэмплы : Да
Интерфейс                                         : Установленный внешний ASPI-интерфейс

Выходной формат : Внутренние WAV-операции
Формат сэмплов  : 44.100 Гц; 16 бит; стерео

TOC извлечённого CD

     Трек |   Старт  | Длительность | Начальный сектор | Конечный сектор
    ---------------------------------------------------------------------
       1  |  0:00.00 |    3:35.57   |           0      |      16181
       2  |  3:35.57 |    3:38.04   |       16182      |      32535
       3  |  7:13.61 |    4:26.70   |       32536      |      52555
       4  | 11:40.56 |    4:36.46   |       52556      |      73301
       5  | 16:17.27 |    4:44.28   |       73302      |      94629
       6  | 21:01.55 |    4:21.63   |       94630      |     114267
       7  | 25:23.43 |    4:31.06   |      114268      |     134598
       8  | 29:54.49 |    3:08.00   |      134599      |     148698
       9  | 33:02.49 |    5:48.65   |      148699      |     174863
      10  | 38:51.39 |    3:51.53   |      174864      |     192241
      11  | 42:43.17 |    3:54.18   |      192242      |     209809
      12  | 46:37.35 |    4:49.66   |      209810      |     231550
      13  | 51:27.26 |    2:55.52   |      231551      |     244727
      14  | 54:23.03 |    4:09.27   |      244728      |     263429
      15  | 58:32.30 |    6:46.61   |      263430      |     293940
      16  | 65:19.16 |    2:51.09   |      293941      |     306774
      17  | 68:10.25 |    4:27.04   |      306775      |     326803
      18  | 72:37.29 |    3:25.19   |      326804      |     342197
      19  | 76:02.48 |    3:52.11   |      342198      |     359608

Характеристики диапазона извлечения и сообщения об ошибках

Выбранный диапазон

     Имя файла M:\СВОИ\George Bellas\The Dawn Of Time - 2010\George Bellas - The Dawn Of Time.wav

     Пиковый уровень 96.7 %
     Качество диапазона 100.0 %
     CRC теста 28D1B79D
     CRC копии 28D1B79D
     Копирование... OK

Ошибок не произошло

AccurateRip: сводка

Трек  1  точное извлечение (доверие 1)  [89FB8284]
Трек  2  точное извлечение (доверие 1)  [3E0A7D59]
Трек  3  точное извлечение (доверие 1)  [FF6C013A]
Трек  4  точное извлечение (доверие 1)  [2D8F2075]
Трек  5  точное извлечение (доверие 1)  [83B04E0F]
Трек  6  точное извлечение (доверие 1)  [0548E353]
Трек  7  точное извлечение (доверие 1)  [CB0E8270]
Трек  8  точное извлечение (доверие 1)  [0C279082]
Трек  9  точное извлечение (доверие 1)  [961045B2]
Трек 10  точное извлечение (доверие 1)  [9A26FDC2]
Трек 11  точное извлечение (доверие 1)  [B15A37F2]
Трек 12  точное извлечение (доверие 1)  [358E8E11]
Трек 13  точное извлечение (доверие 1)  [8E6CD18D]
Трек 14  точное извлечение (доверие 1)  [2BD8BE1E]
Трек 15  точное извлечение (доверие 1)  [60243B1A]
Трек 16  точное извлечение (доверие 1)  [81351C92]
Трек 17  точное извлечение (доверие 1)  [84C77EF5]
Трек 18  точное извлечение (доверие 1)  [3D91F7D3]
Трек 19  точное извлечение (доверие 1)  [855F3D78]

Все треки извлечены точно

Конец отчёта

Отчёт auCDtect Task manager:

Код:

-----------------------

DON'T MODIFY THIS FILE

-----------------------

PERFORMER: auCDtect Task Manager, ver. 1.5.1RC4 build 1.5.1.5
Copyright (c) 2008-2010 y-soft. All rights reserved
http://y-soft.org

ANALYZER: auCDtect: CD records authenticity detector, version 0.8.2
Copyright (c) 2004 Oleg Berngardt. All rights reserved.
Copyright (c) 2004 Alexander Djourik. All rights reserved.

FILE: George Bellas - The Dawn Of Time.flac
  Size: 516210438 Hash: 8F71B7853A76AD0250B73B3011F15C26 Accuracy: -m0
  Conclusion: CDDA 100%
  Signature: 5FD2F0D32FA048770B120B49128C130B75DFFC76
Детали торрента:
Название:George Bellas - The Dawn Of Time (2010) [FLAC|Lossless]<Progressive, Melodic Guirar Rock,Neo-Classic>
Дата добавления:06 Апр 2011 15:45:20
Размер:498 MB
Раздают:
Качают:0
Форум:Rock (Lossless)

All rights reserved © 2015-2018