TORRENTS43.COM

Скачать Наш космос (серия 5) (2011) SATRip


Наш космос (серия 5) (2011) SATRip
Название: Наш космос

Телекомпания: НТВ
Год выпуска: 2011
Жанр: Документальный

Описание:
27 января 1967 года на мысе Канаверал во время испытаний загорается корабль «Аполлон», трое астронавтов погибают. Эта неудача тормозит американцев. У Советов снова появляется шанс стать первыми. Сроки поджимают. Испытания «Союзов» — многоместных космических кораблей — одно за другим заканчиваются неудачей, но подготовка к старту, несмотря ни на что, идет полным ходом. Командиром корабля назначен Владимир Комаров. Он должен провести стыковку двух кораблей и обеспечить переход космонавтов из одного корабля в другой. Однако ни стыковки, ни перехода космонавтов не будет…

Продолжительность: ~00:44:20

Видеокодек: DivX
Битрейт видео: ~1300kbps
Размер кадра: 704х384
Качество видео: SATRip
Аудиокодек: MP3
Битрейт аудио: ~128.00 kbps avg

Отчет MediaInfo:

General
Complete name : F:\\Nash.kosmos.05.SATRip.Riper.AM.avi
Format : AVI
Format/Info : Audio Video Interleave
File size : 457 MiB
Duration : 44mn 20s
Overall bit rate : 1 441 Kbps
Writing library : TMPGEnc 4.0 XPress Version. 4.7.4.299

Video
ID : 0
Format : MPEG-4 Visual
Format settings, BVOP : 1
Format settings, QPel : No
Format settings, GMC : No warppoints
Format settings, Matrix : Default (H.263)
Muxing mode : Packed bitstream
Codec ID : DX50
Codec ID/Hint : DivX 5
Duration : 44mn 20s
Bit rate : 1 300 Kbps
Width : 704 pixels
Height : 384 pixels
Display aspect ratio : 16:9
Frame rate : 25.000 fps
Color space : YUV
Chroma subsampling : 4:2:0
Bit depth : 8 bits
Scan type : Progressive
Compression mode : Lossy
Bits/(Pixel*Frame) : 0.192
Stream size : 412 MiB (90%)
Writing library : DivX 6.8.5 (UTC 2009-08-20)

Audio
ID : 1
Format : MPEG Audio
Format version : Version 1
Format profile : Layer 3
Mode : Joint stereo
Mode extension : MS Stereo
Codec ID : 55
Codec ID/Hint : MP3
Duration : 44mn 20s
Bit rate mode : Constant
Bit rate : 128 Kbps
Channel(s) : 2 channels
Sampling rate : 48.0 KHz
Compression mode : Lossy
Stream size : 40.6 MiB (9%)
Alignment : Aligned on interleaves
Interleave, duration : 40 ms (1.01 video frame)
Interleave, preload duration : 408 ms
Скриншоты:


Детали торрента:
Название:Наш космос (серия 5) (2011) SATRip
Дата добавления:13 Апр 2011 19:41:39
Размер:457 MB
Раздают:
Качают:0
Форум:Космос

All rights reserved © 2015-2018