TORRENTS43.COM

Скачать Mick Jagger - Goddess In The Doorway (2001) [FLAC|Lossless]<Rock>


Mick Jagger - Goddess In The Doorway (2001)
Год: 2001
Жанр: Rock
Продолжительность: 00:56:51

Кодек: FLAC
Битрейт: Lossless
Тип битрейта: CBR

Трек лист:
01. Visions Of Paradise
02. Joy
03. Dancing In The Starlight
04. God Gave Me Everything
05. Hide Away
06. Don't Call Me Up
07. Goddess In The Doorway
08. Lucky Day
09. Everybody Getting High
10. Gun
11. Too Far Gone
12. Brand New Set Of Rules

Отчёт ЕАС:

Код:

Exact Audio Copy V0.99 prebeta 5 from 4. May 2009

EAC extraction logfile from 27. October 2009, 19:33

Mick Jagger / Goddess In The Doorway

Used drive  : ATAPI   DVD A  DH20A4P   Adapter: 1  ID: 0

Read mode               : Secure
Utilize accurate stream : Yes
Defeat audio cache      : Yes
Make use of C2 pointers : No

Read offset correction                      : 6
Overread into Lead-In and Lead-Out          : No
Fill up missing offset samples with silence : Yes
Delete leading and trailing silent blocks   : No
Null samples used in CRC calculations       : Yes
Used interface                              : Installed external ASPI interface

Used output format : Internal WAV Routines
Sample format      : 44.100 Hz; 16 Bit; Stereo

TOC of the extracted CD

     Track |   Start  |  Length  | Start sector | End sector
    ---------------------------------------------------------
        1  |  0:00.00 |  4:01.30 |         0    |    18104
        2  |  4:01.30 |  4:40.50 |     18105    |    39154
        3  |  8:42.05 |  4:06.22 |     39155    |    57626
        4  | 12:48.27 |  3:34.23 |     57627    |    73699
        5  | 16:22.50 |  4:33.52 |     73700    |    94226
        6  | 20:56.27 |  5:14.30 |     94227    |   117806
        7  | 26:10.57 |  4:56.30 |    117807    |   140036
        8  | 31:07.12 |  4:51.28 |    140037    |   161889
        9  | 35:58.40 |  3:56.32 |    161890    |   179621
       10  | 39:54.72 |  4:41.00 |    179622    |   200696
       11  | 44:35.72 |  4:36.05 |    200697    |   221401
       12  | 49:12.02 |  7:39.33 |    221402    |   255859

Range status and errors

Selected range

     Filename E:\Mick Jagger\2001 Goddess In The Doorway\Mick Jagger - Goddess In The Doorway.wav

     Peak level 99.9 %
     Range quality 100.0 %
     Test CRC 2782AD2F
     Copy CRC 2782AD2F
     Copy OK

No errors occurred

End of status report

Отчёт auCDtect Task manager:

Код:

-----------------------

DON'T MODIFY THIS FILE

-----------------------

PERFORMER: auCDtect Task Manager, ver. 1.5.1RC4 build 1.5.1.5
Copyright (c) 2008-2010 y-soft. All rights reserved
http://y-soft.org

ANALYZER: auCDtect: CD records authenticity detector, version 0.8.2
Copyright (c) 2004 Oleg Berngardt. All rights reserved.
Copyright (c) 2004 Alexander Djourik. All rights reserved.

FILE: Mick Jagger - Goddess In The Doorway.flac
  Size: 392669552 Hash: E4CC4E41320277B865BF33DB37B403C5 Accuracy: -m0
  Conclusion: CDDA 100%
  Signature: 82F9AFFC5030DDCC5D86E8061E631FB248776E9F
Детали торрента:
Название:Mick Jagger - Goddess In The Doorway (2001) [FLAC|Lossless]<Rock>
Дата добавления:13 Апр 2011 23:57:31
Размер:382 MB
Раздают:
Качают:0
Форум:Rock (Lossless)

All rights reserved © 2015-2018