TORRENTS43.COM

Скачать Yanni - Truth Of Touch (2011) [FLAC|Lossless]<New Age>


Yanni - Truth Of Touch (2011)
Год: 2011
Жанр: New Age
Издание: Rocket Science / Ventures
Продолжительность: 01:02:06

Кодек: FLAC
Битрейт: Lossless
Тип рипа: Image+.cue

Трек лист:
01. Truth Of Touch [4:11]
02. Echo Of A Dream [3:57]
03. Seasons [3:54]
04. Voyage [3:34]
05. Flash Of Color [3:15]
06. Vertigo [3:26]
07. Nine [5:31]
08. Can't Wait [4:07]
09. Guilty Pleasure [3:47]
10. O Luce Che Brilla Nell'Oscurita [4:01]
11. I'm So [4:35]
12. Long Way Home [3:24]
13. Yanni & Arturo [5:54]
14. Mist Of A Kiss [4:29]
15. Secret [4:02]

Отчёт ЕАС:

Код:

Exact Audio Copy V1.0 beta 1 from 15. November 2010

EAC extraction logfile from 16. March 2011, 9:42

Yanni / Truth Of Touch

Used drive  : ATAPI   iHAS124   Y   Adapter: 2  ID: 2

Read mode               : Secure
Utilize accurate stream : Yes
Defeat audio cache      : Yes
Make use of C2 pointers : No

Read offset correction                      : 48
Overread into Lead-In and Lead-Out          : No
Fill up missing offset samples with silence : Yes
Delete leading and trailing silent blocks   : No
Null samples used in CRC calculations       : Yes
Used interface                              : Native Win32 interface for Win NT & 2000

Used output format : Internal WAV Routines
Sample format      : 44.100 Hz; 16 Bit; Stereo

TOC of the extracted CD

     Track |   Start  |  Length  | Start sector | End sector
    ---------------------------------------------------------
        1  |  0:00.00 |  4:10.64 |         0    |    18813
        2  |  4:10.64 |  3:56.68 |     18814    |    36581
        3  |  8:07.57 |  3:53.71 |     36582    |    54127
        4  | 12:01.53 |  3:33.64 |     54128    |    70166
        5  | 15:35.42 |  3:14.42 |     70167    |    84758
        6  | 18:50.09 |  3:25.46 |     84759    |   100179
        7  | 22:15.55 |  5:31.28 |    100180    |   125032
        8  | 27:47.08 |  4:07.09 |    125033    |   143566
        9  | 31:54.17 |  3:46.40 |    143567    |   160556
       10  | 35:40.57 |  4:01.35 |    160557    |   178666
       11  | 39:42.17 |  4:35.27 |    178667    |   199318
       12  | 44:17.44 |  3:24.21 |    199319    |   214639
       13  | 47:41.65 |  5:54.23 |    214640    |   241212
       14  | 53:36.13 |  4:28.52 |    241213    |   261364
       15  | 58:04.65 |  4:02.04 |    261365    |   279518

Range status and errors

Selected range

     Filename C:\Моя музыка\Yanni - Truth Of Touch (2011)\Yanni - Truth Of Touch.wav

     Peak level 100.0 %
     Extraction speed 0.2 X
     Range quality 100.0 %
     Test CRC 4EE2CC5D
     Copy CRC 4EE2CC5D
     Copy OK

No errors occurred

AccurateRip summary

Track  1  accurately ripped (confidence 1)  [A445842E]
Track  2  accurately ripped (confidence 1)  [9B422307]
Track  3  accurately ripped (confidence 1)  [358D924D]
Track  4  accurately ripped (confidence 1)  [0E97E16B]
Track  5  accurately ripped (confidence 1)  [9F99EF38]
Track  6  accurately ripped (confidence 1)  [44FFF116]
Track  7  accurately ripped (confidence 1)  [D61E2BE0]
Track  8  accurately ripped (confidence 1)  [6815BE64]
Track  9  accurately ripped (confidence 1)  [C479EC65]
Track 10  accurately ripped (confidence 1)  [7BF5AC7B]
Track 11  accurately ripped (confidence 1)  [05258D96]
Track 12  accurately ripped (confidence 1)  [3123EBC9]
Track 13  accurately ripped (confidence 1)  [C3144F62]
Track 14  accurately ripped (confidence 1)  [78CF1F0F]
Track 15  accurately ripped (confidence 1)  [285CE25C]

All tracks accurately ripped

End of status report

==== Log checksum 124A2E1B9982F355FDF08C781EEF969340B2455B9AA8B1D7B97355FDEB08D00B ====

Отчёт auCDtect Task manager:

Код:

-----------------------

DON'T MODIFY THIS FILE

-----------------------

PERFORMER: auCDtect Task Manager, ver. 1.5.1RC3 build 1.5.1.4
Copyright (c) 2008-2010 y-soft. All rights reserved
http://y-soft.org

ANALYZER: auCDtect: CD records authenticity detector, version 0.8.2
Copyright (c) 2004 Oleg Berngardt. All rights reserved.
Copyright (c) 2004 Alexander Djourik. All rights reserved.

FILE: Yanni - Truth Of Touch.flac
  Size: 413315971 Hash: EECC313B6193A47B7BB673D3E8677ACD Accuracy: -m8
  Conclusion: CDDA 100%
  Signature: A86F7872441BF02B7165D9A7DB2669F2ABC0BF44
Детали торрента:
Название:Yanni - Truth Of Touch (2011) [FLAC|Lossless]<New Age>
Дата добавления:23 Апр 2011 08:16:57
Размер:395 MB
Раздают:2
Качают:0
Форум:New Age/Meditative/Relax (Lossless)

All rights reserved © 2015-2018