TORRENTS43.COM

Скачать Король воздуха 2. Золотой мяч / Air bud: golden receiver 2 (1998) DVDRip


Король воздуха 2. Золотой мяч / Air bud: golden receiver 2 (1998) DVDRip
Русское название: Король воздуха 2. Золотой мяч
Оригинальное название: Air bud: golden receiver / Air bud 2
Год выпуска: 1998
Жанр: Семейный, Комедия

Описание фильма:
Увидев, как самый спортивный пес Бадди ловко забрасывает мяч в баскетбольную корзину, парочка незадачливых циркачей решает похитить четвероногого чемпиона. А его хозяин Джош тем временем записывается в школьную команду по американскому футболу. И, как всегда, Бадди приходит на помощь своему лучшему другу и спасает его команду от очередного позорного поражения, а затем ведет ее от победы к победе. Но жуликам-циркачам все же удается похитить пса-чемпиона, заманив Бадди в машину с мороженым. Это просто катастрофа, ведь без него команде грозит поражение в суперфинале. Теперь лишь везение Джоша, смекалка Бадди и помощь его нового друга - уморительного шимпанзе Мортимера - могут спасти ситуацию!

Режиссер: Мартин Ричард
Актеры: Тим Конуэй, Дик Мартин, Кевин Зегерс, Синтиа Стевенсон, Грегори Хэррисон, Нора Данн

Продолжительность: 1:26:42
Перевод: Многоголосый закадровый



Параметр матрицы формата: Default (H.263)
Видеокодек: DivX 5
Идентификатор кодека: DX50
Битрейт видео: ~996 Кбит/сек
Размер кадра: 512 х 400
Качество видео: DVDRip
Аудиокодек: MP3
Битрейт аудио: 192 Кбит/сек
Каналы: 2 канала
Частота: 48,0 КГц

Сэмпл: Ссылка Скриншоты:

дополнительные скриншоты

отче Media info

Общее
Полное имя : E:\фильмы\Король воздуха\Король воздуха. Золотой мяч 1998.avi
Формат : AVI
Формат/Информация : Audio Video Interleave
Размер файла : 735 Мбайт
Продолжительность : 1 ч. 26 м.
Общий поток : 1185 Кбит/сек
Программа кодирования : VirtualDubMod 1.5.10.2 (build 2542/release)
Библиотека кодирования : VirtualDubMod build 2542/release

Видео
Идентификатор : 0
Формат : MPEG-4 Visual
Параметр BVOP формата : 1
Параметр QPel формата : Нет
Параметр GMC формата : Без точки перехода
Параметр матрицы формата : Default (H.263)
Режим смешивания : Сжатый битовый поток
Идентификатор кодека : DX50
Идентификатор кодека/Подсказка : DivX 5
Продолжительность : 1 ч. 26 м.
Битрейт : 996 Кбит/сек
Ширина : 512 пикс.
Высота : 400 пикс.
Соотношение сторон : 1,280
Частота кадров : 25,000 кадр/сек
Цветовое пространство : YUV
Подвыборка цветности : 4:2:0
Битовая глубина : 8 бит
Тип развёртки : Прогрессивная
Метод сжатия : С потерями
Бит/(Пиксели*Кадры) : 0.195
Размер потока : 618 Мбайт (84%)
Библиотека кодирования : DivX 5.0.5 (UTC 2003-04-24)

Аудио
Идентификатор : 1
Формат : MPEG Audio
Идентификатор кодека : 55
Идентификатор кодека/Подсказка : MP3
Продолжительность : 1 ч. 22 м.
Битрейт : 192 Кбит/сек
Каналы : 2 канала
Частота : 48,0 КГц
Метод сжатия : С потерями
Размер потока : 114 Мбайт (16%)
Выравнивание : Разделение по промежуткам
Продолжительность промежутка : 5202920 мс. (130073,00 видеокадров)
:смущение: :смущение: :смущение: Не забывайте говорить спасибо. Релизёру будет приятно :смущение: :смущение: :смущение:

Детали торрента:
Название:Король воздуха 2. Золотой мяч / Air bud: golden receiver 2 (1998) DVDRip
Дата добавления:31 Май 2011 18:29:52
Размер:735 MB
Раздают:1
Качают:0
Форум:Зарубежные Фильмы для детей

All rights reserved © 2015-2018