TORRENTS43.COM

Скачать Lincoln Center Jazz Orchestra with Wynton Marsalis - Plays The Music Of Duke Ellington (2004) [FLAC|Lossless]<Modern Big Band>


Lincoln Center Jazz Orchestra with Wynton Marsalis - Plays The Music Of Duke Ellington (2004)
Год: 2004
Жанр: Modern Big Band
Продолжительность: 00:51:08

Кодек: FLAC
Битрейт: Lossless
Джазовый оркестр и Wynton Marsalis играют музыку великого гения джаза Дюка Эллингтона.
01. Anitra's Dance 			    (02:54)
02. Almost Cried (02:23)
03. I Let a Song Go Out of My Heart (02:58)
04. Jump for Joy (02:55)
05. Sugar Rum Cherry (03:13)
06. Concerto for Cootie (03:47)
07. Kinda Dukish/Rockin' in Rhythm (medley) (05:31)
08. Zweet Zurzday (03:44)
09. Bli Blip (03:06)
10. Pyramid (03:10)
11. Rhapsody in Blue (06:25)
12. Jack the Bear (03:22)
13. The Shepherd
(Who Looks Over the Night Flock) (07:40)

Отчёт EAC:

Код:

Exact Audio Copy V1.0 beta 2 from 29. April 2011

EAC extraction logfile from 15. June 2011, 0:39

Lincoln Center Jazz Orchestra with Wynton Marsalis / Plays The Music Of Duke Ellington

Used drive  : HL-DT-STDVD-RAM GSA-H55N   Adapter: 0  ID: 2

Read mode               : Secure
Utilize accurate stream : Yes
Defeat audio cache      : Yes
Make use of C2 pointers : No

Read offset correction                      : 102
Overread into Lead-In and Lead-Out          : Yes
Fill up missing offset samples with silence : Yes
Delete leading and trailing silent blocks   : No
Null samples used in CRC calculations       : Yes
Used interface                              : Installed external ASPI interface
Gap handling                                : Appended to previous track

Used output format              : User Defined Encoder
Selected bitrate                : 128 kBit/s
Quality                         : High
Add ID3 tag                     : No
Command line compressor         : G:\Program Files\Exact Audio Copy\Encoder\flac.exe
Additional command line options : -V -8 -T "Genre=%genre%" -T "Artist=%artist%" -T "Title=%title%" -T "Album=%albumtitle%" -T "Date=%year%" -T "Tracknumber=%tracknr%" -T "Comment=EAC1.0b2 FLAC -8" %source%

TOC of the extracted CD

     Track |   Start  |  Length  | Start sector | End sector
    ---------------------------------------------------------
        1  |  0:00.00 |  2:53.67 |         0    |    13041
        2  |  2:53.67 |  2:22.57 |     13042    |    23748
        3  |  5:16.49 |  2:57.61 |     23749    |    37084
        4  |  8:14.35 |  2:54.71 |     37085    |    50205
        5  | 11:09.31 |  3:12.54 |     50206    |    64659
        6  | 14:22.10 |  3:46.51 |     64660    |    81660
        7  | 18:08.61 |  5:31.34 |     81661    |   106519
        8  | 23:40.20 |  3:44.22 |    106520    |   123341
        9  | 27:24.42 |  3:05.54 |    123342    |   137270
       10  | 30:30.21 |  3:09.70 |    137271    |   151515
       11  | 33:40.16 |  6:25.34 |    151516    |   180424
       12  | 40:05.50 |  3:22.12 |    180425    |   195586
       13  | 43:27.62 |  7:40.09 |    195587    |   230095

Track  1

     Filename F:\WAV\01 - Anitra's Dance.wav

     Pre-gap length  0:00:02.00

     Peak level 100.0 %
     Extraction speed 4.1 X
     Track quality 100.0 %
     Test CRC FEC227A9
     Copy CRC FEC227A9
     Accurately ripped (confidence 1)  [557403B1]  (AR v1)
     Copy OK

Track  2

     Filename F:\WAV\02 - Almost Cried.wav

     Peak level 100.0 %
     Extraction speed 3.5 X
     Track quality 99.9 %
     Test CRC 9021253E
     Copy CRC 9021253E
     Accurately ripped (confidence 1)  [AF1E46F9]  (AR v1)
     Copy OK

Track  3

     Filename F:\WAV\03 - I Let a Song Go Out of My Heart.wav

     Peak level 100.0 %
     Extraction speed 4.7 X
     Track quality 100.0 %
     Test CRC AB34114D
     Copy CRC AB34114D
     Accurately ripped (confidence 1)  [4BDA5AF1]  (AR v1)
     Copy OK

Track  4

     Filename F:\WAV\04 - Jump for Joy.wav

     Peak level 100.0 %
     Extraction speed 4.2 X
     Track quality 99.9 %
     Test CRC B326C23F
     Copy CRC B326C23F
     Accurately ripped (confidence 1)  [33ED444B]  (AR v1)
     Copy OK

Track  5

     Filename F:\WAV\05 - Sugar Rum Cherry.wav

     Peak level 99.9 %
     Extraction speed 5.3 X
     Track quality 100.0 %
     Test CRC E1E4A918
     Copy CRC E1E4A918
     Accurately ripped (confidence 1)  [3F6A218A]  (AR v1)
     Copy OK

Track  6

     Filename F:\WAV\06 - Concerto for Cootie.wav

     Peak level 89.1 %
     Extraction speed 5.6 X
     Track quality 100.0 %
     Test CRC EC7440AF
     Copy CRC EC7440AF
     Accurately ripped (confidence 1)  [EDE8CCE0]  (AR v1)
     Copy OK

Track  7

     Filename F:\WAV\07 - Kinda Dukish.Rockin' in Rhythm (medley).wav

     Peak level 100.0 %
     Extraction speed 6.4 X
     Track quality 100.0 %
     Test CRC 2F381FE2
     Copy CRC 2F381FE2
     Accurately ripped (confidence 1)  [07254232]  (AR v1)
     Copy OK

Track  8

     Filename F:\WAV\08 - Zweet Zurzday.wav

     Peak level 84.6 %
     Extraction speed 6.4 X
     Track quality 100.0 %
     Test CRC F479C6EA
     Copy CRC F479C6EA
     Accurately ripped (confidence 1)  [8606AC62]  (AR v1)
     Copy OK

Track  9

     Filename F:\WAV\09 - Bli Blip.wav

     Peak level 100.0 %
     Extraction speed 6.4 X
     Track quality 100.0 %
     Test CRC 76E43323
     Copy CRC 76E43323
     Accurately ripped (confidence 1)  [F06A03D6]  (AR v1)
     Copy OK

Track 10

     Filename F:\WAV\10 - Pyramid.wav

     Peak level 97.7 %
     Extraction speed 6.5 X
     Track quality 100.0 %
     Test CRC 498696C0
     Copy CRC 498696C0
     Accurately ripped (confidence 1)  [7BBC1CAB]  (AR v1)
     Copy OK

Track 11

     Filename F:\WAV\11 - Rhapsody in Blue.wav

     Peak level 90.8 %
     Extraction speed 6.9 X
     Track quality 99.9 %
     Test CRC EA44D531
     Copy CRC EA44D531
     Accurately ripped (confidence 1)  [A90A2136]  (AR v1)
     Copy OK

Track 12

     Filename F:\WAV\12 - Jack the Bear.wav

     Peak level 100.0 %
     Extraction speed 6.1 X
     Track quality 99.9 %
     Test CRC 1052662D
     Copy CRC 1052662D
     Accurately ripped (confidence 1)  [994D2A28]  (AR v1)
     Copy OK

Track 13

     Filename F:\WAV\13 - The Shepherd (Who Looks Over the Night Flock).wav

     Peak level 94.3 %
     Extraction speed 6.4 X
     Track quality 99.9 %
     Test CRC 76DD00B5
     Copy CRC 76DD00B5
     Accurately ripped (confidence 1)  [7BE44F5B]  (AR v1)
     Copy OK

All tracks accurately ripped

No errors occurred

End of status report

Отчёт auCDtect Task Manager:

Код:

-----------------------

DON'T MODIFY THIS FILE

-----------------------

PERFORMER: auCDtect Task Manager, ver. 1.5.1RC4 build 1.5.1.5
Copyright (c) 2008-2010 y-soft. All rights reserved
http://y-soft.org

ANALYZER: auCDtect: CD records authenticity detector, version 0.8.2
Copyright (c) 2004 Oleg Berngardt. All rights reserved.
Copyright (c) 2004 Alexander Djourik. All rights reserved.

FILE: 13 - The Shepherd (Who Looks Over the Night Flock).flac
  Size: 45754848 Hash: 9D56748EB38F1237C241FDC241AE6B11 Accuracy: -m0
  Conclusion: CDDA 100%
  Signature: 8350364E07C92B3B72C8515445EFB8553D6A932E
FILE: 12 - Jack the Bear.flac
  Size: 20208812 Hash: C6F5D1941E200D4159D7DDE2A3868F5B Accuracy: -m0
  Conclusion: CDDA 100%
  Signature: 71A14C7ED0242B3FEC45FCD9AE512223F484DFE4
FILE: 11 - Rhapsody in Blue.flac
  Size: 33716724 Hash: DA3A22A5A44DA5110FB7957F8700C514 Accuracy: -m0
  Conclusion: CDDA 100%
  Signature: 6C75C8EA8E7DFA26B8FF3C23D94875A8D6B35748
FILE: 10 - Pyramid.flac
  Size: 17358536 Hash: BE6199AB2C684507159FE44E12D8AA93 Accuracy: -m0
  Conclusion: CDDA 99%
  Signature: 6CD185644568E246F554F68B9235B43A13B4C988
FILE: 09 - Bli Blip.flac
  Size: 18468615 Hash: 297E3C0BA29E018D36D2D41E364A1C34 Accuracy: -m0
  Conclusion: CDDA 99%
  Signature: A229DB2CFD52037F84970F6A0CD465AC0BB8ACC4
FILE: 08 - Zweet Zurzday.flac
  Size: 17903867 Hash: 11EF7083B3DAE55F4EBF703F224141C4 Accuracy: -m0
  Conclusion: CDDA 99%
  Signature: 6D431F4BB9CE9A2D9CB9ABA7BC901469AB00730D
FILE: 07 - Kinda Dukish.Rockin' in Rhythm (medley).flac
  Size: 36289807 Hash: E7F3D0FE099C955B09AFF84E99145959 Accuracy: -m0
  Conclusion: CDDA 100%
  Signature: 2C9DD9A391ABBC3E86256211E21C5F26F15D8C71
FILE: 06 - Concerto for Cootie.flac
  Size: 21126116 Hash: 72838548265B143DAD19AA05EFE28224 Accuracy: -m0
  Conclusion: CDDA 100%
  Signature: D1B269895E31458B72DE1F4DB8E5EE938ACF2259
FILE: 05 - Sugar Rum Cherry.flac
  Size: 17623556 Hash: F4DD593E64A886DF9B7B09E55C70F6D1 Accuracy: -m0
  Conclusion: CDDA 100%
  Signature: B1CED762E939FECB8FAD81EE4A650FDB899F6418
FILE: 04 - Jump for Joy.flac
  Size: 19253377 Hash: 1DFD89DD99ACF9A2DCE493E6F2C9D873 Accuracy: -m0
  Conclusion: CDDA 100%
  Signature: E01B918BA40E326D8F9845D7FFAA05341642D6D9
FILE: 03 - I Let a Song Go Out of My Heart.flac
  Size: 15287724 Hash: 6B33FC62A6060BC22B4E07C2C2F21994 Accuracy: -m0
  Conclusion: CDDA 100%
  Signature: AC651A248C37DE0902ACBA863F3C24655446F7BB
FILE: 02 - Almost Cried.flac
  Size: 12860627 Hash: E2B2114265A71A51506C219819F136AD Accuracy: -m0
  Conclusion: CDDA 99%
  Signature: 39EFABC90B36747E4CC9C032617514C0C25CE269
FILE: 01 - Anitra's Dance.flac
  Size: 19082443 Hash: 52977EB74F9D63DE0EFB8B77A333383E Accuracy: -m0
  Conclusion: CDDA 100%
  Signature: 435FE579DC9065E41AB69FAABD8EEA0F5BE88C43


Каталог моих раздач посвященных джазу

Анатолий Кролл - Оркестр 'Современник' - Мы из джаза (1983)
Matt Bianco - 11 альбомов (1984-2009)
The Jim Hall Quartet - All Across the City (ремастер 2003) (1989)
Ettore Stratta & The Royal Philharmonic Orchestra - Symphonic Bossa Nova (1994)
Duke Ellington - Jazz & Blues Collection (1995)
Duke Ellington And Johnny Hodges - Back To Back Play The Blues (1997)
Glenn Miller - Millenium Collection (2CD) (2000)
Saul Berson Quartet - 2 CD (2002, 2007)
Rod Stewart - The Great American Songbook (Vol.I - V) (2002 - 2010)
Manhattan Jazz Quintet - Come Together & V.S.O.P. (2005, 2008)
Cedar Walton Trio - Midnight Waltz (2005)
The Swingfield Big Band - Big Band Swing (2005)
Glenn Miller Orchestra - The Very Best of Swing (2007)
Moutin Reunion Quartet - Soul Dancers (2009)
Louis Armstrong - 100 Hits Legends (5CD) (2010)
Jasper Bergstrom - A Saxy Lounge Experience (2010)
Gordon Goodwin's Big Phat Band - That's How We Roll (2011)
VA - The Colossal Saxophone Sessions (2СD) (1992)
VA - Jazz Legends. Saxophone (2CD) (2002)
VA - Swing. Most Wanted (2005)
VA - Jazz Piano History (20 CD-set) (2006)
VA - Immer wieder tanzen. Swing in Deutschland 1934-1948 (3CD) (2007)
VA - Bar Classics Late Night Classics and Jazz (3CD) (2008)
VA - The Best Of Big Band (4CDs) (2008)
VA - Ultimate Funk Grooves For Sax (2010)
VA - The Very Best Of Soft Sax (2010)
VA - The Best From Lossless - Jazz (2010)
VA - Jazz Legends Forever Sing Me a Love Song (2CD) (2010)
VA - Jazz by RoNikEr (2011)

Детали торрента:
Название:Lincoln Center Jazz Orchestra with Wynton Marsalis - Plays The Music Of Duke Ellington (2004) [FLAC|Lossless]<Modern Big Band>
Дата добавления:16 Июн 2011 17:40:37
Размер:321 MB
Раздают:2
Качают:0
Форум:Jazz (Lossless)

All rights reserved © 2015-2018