TORRENTS43.COM

Скачать Транссибирский экспресс (1977) DVD5


Транссибирский экспресс (1977) DVD5
Страна: СССР
Оригинальное название: Транссибирский экспресс
Русское название: Транссибирский экспресс
Год выпуска: 1977
Жанр: Боевик, приключения

Описание фильма:
Второй фильм трилогии о разведчике Чадьярове.
В Японии убита единственная дочь крупного японского бизнесмена, выступающего за налаживание связей с коммунистической Москвой. Несмотря на эту провокацию, несчастный отец отправляется в Москву на транссибирском экспрессе. Злодеи из иностранной разведки, намереваясь сорвать планы по налаживанию торговых отношений между двумя странами, готовят убийство бизнесмена, но чекисты не дремлют...
Режиссер: Эльдор Уразбаев
Актеры: Асанали Ашимов, Нонна Терентьева, Олег Табаков, Константин Григорьев, Нина Алисова, Наталья Аринбасарова, Олег Видов, Олег Ли, Артем Карапетян и др.
Рейтинг:
Продолжительность: 01:25:53
Перевод: оригинальный
Субтитры: отсутствуют
Качество видео: DVD5
Формат: DVD
Видео: PAL 4:3 (720x576) VBR, 6000 Кбит/сек
Аудио: Dolby AC3, 6 ch, 448Kbps

Скриншоты меню:



MediaInfo (детальная информация о файле):

Код: выделить все
Общее
Полное имя                       : C:\Users\Admin\Downloads\Транссибирский экспресс (1977) DVD5\VIDEO_TS\VTS_01_1.VOB
Формат                           : MPEG-PS
Размер файла                     : 1024 Мбайт
Продолжительность                : 21 м.
Общий поток                      : 6665 Кбит/сек

Видео
Идентификатор                    : 224 (0xE0)
Формат                           : MPEG Video
Версия формата                   : Version 2
Профиль формата                  : Main@Main
Параметр BVOP формата            : Да
Параметр матрицы формата         : По умолчанию
Параметры GOP формата            : M=3, N=12
Продолжительность                : 21 м.
Вид битрейта                     : Переменный
Битрейт                          : 6000 Кбит/сек
Ширина                           : 720 пикс.
Высота                           : 576 пикс.
Соотношение сторон               : 4:3
Частота кадров                   : 25,000 кадр/сек
Стандарт вещания                 : PAL
Цветовое пространство            : YUV
Подвыборка цветности             : 4:2:0
Битовая глубина                  : 8 бит
Тип развёртки                    : Чересстрочная
Порядок развёртки                : Верхнее поле первое
Метод сжатия                     : С потерями
Бит/(Пиксели*Кадры)              : 0.579
Размер потока                    : 935 Мбайт (91%)

Аудио
Идентификатор                    : 189 (0xBD)-128 (0x80)
Формат                           : AC-3
Формат/Информация                : Audio Coding 3
Расширение режима                : CM (complete main)
Режим смешивания                 : DVD-Video
Продолжительность                : 21 м.
Вид битрейта                     : Постоянный
Битрейт                          : 448 Кбит/сек
Канал(ы)                         : 6 канала(ов)
Расположение каналов             : Front: L C R, Side: L R, LFE
Частота                          : 48,0 КГц
Битовая глубина                  : 16 бит
Метод сжатия                     : С потерями
Задержка видео                   : -80 мс.
Размер потока                    : 68,8 Мбайт (7%)

Меню

Смотреть Online

http://moonwalk.cc/video/1036871cfea4d85c/iframe
Детали торрента:
Название:Транссибирский экспресс (1977) DVD5
Дата добавления:18 Июн 2011 20:26:20
Размер:4,06 GB
Раздают:1
Качают:0
Форум:Отечественная Классика (DVD)

All rights reserved © 2015-2018