TORRENTS43.COM

Скачать Матрица: Перезагрузка / The Matrix Reloaded (2003) HDRip


Матрица: Перезагрузка / The Matrix Reloaded (2003) HDRip
Русское название: Матрица: Перезагрузка
Оригинальное название: The Matrix Reloaded
Год выпуска: 2003
Жанр: Фантастика, Боевик

Описание фильма:
Борцы за свободу Нео, Тринити и Морфиус продолжают руководить восстанием людей против Армии Машин. Для уничтожения системы репрессий и эксплуатации они вынуждены прибегнуть не только к арсеналу превосходного оружия, но и к своим выдающимся навыкам.
Участие в миссии по спасению человеческой расы от ее полного истребления приносит им более глубокое понимание конструкции Матрицы и осознание центральной роли Нео в судьбе человечества.

Режиссер: Лэрри Вачовски / Larry Wachowski, Энди Вачовски / Andy Wachowski
Актеры: Киану Ривз / Keanu Reeves, Лоуренс Фишберн / Laurence Fishburne, Кэрри-Энн Мосс / Carrie Anne Moss, Хьюго Уивинг / Hugo Weaving, Джада Пинкетт Смит / Jada Pinkett Smith, Моника Белуччи / Monica Belucci/

Продолжительность: 2:18:15
Перевод: Дублированный
Релиз группа: Scarabey



Видеокодек: Xvid
Битрейт видео: 707 kb/s
Размер кадра: 688x288 (2.39:1)
Качество видео: HDRip
Аудиокодек: MP3
Битрейт аудио: 128.00 kb/s

MediaInfo

Общее
Полное имя : E:\Фильмы\Фильмы\Matrica_HDRip_Perezagruzka_by_Scarabey.avi
Формат : AVI
Формат/Информация : Audio Video Interleave
Размер файла : 835 Мбайт
Продолжительность : 2 ч. 18 м.
Общий поток : 845 Кбит/сек
Программа кодирования : VirtualDubMod 1.5.10.2 (build 2540/release)
Библиотека кодирования : VirtualDubMod build 2540/release

Видео
Идентификатор : 0
Формат : MPEG-4 Visual
Профиль формата : Advanced Simple@L5
Параметр BVOP формата : 1
Параметр QPel формата : Нет
Параметр GMC формата : Без точки перехода
Параметр матрицы формата : Выборочная
Идентификатор кодека : XVID
Идентификатор кодека/Подсказка : XviD
Продолжительность : 2 ч. 18 м.
Битрейт : 708 Кбит/сек
Ширина : 688 пикс.
Высота : 288 пикс.
Соотношение сторон : 2,35:1
Частота кадров : 23,976 кадр/сек
Цветовое пространство : YUV
Подвыборка цветности : 4:2:0
Битовая глубина : 8 бит
Тип развёртки : Прогрессивная
Метод сжатия : С потерями
Бит/(Пиксели*Кадры) : 0.149
Размер потока : 700 Мбайт (84%)
Библиотека кодирования : XviD 1.2.1 (UTC 2008-12-04)

Аудио
Идентификатор : 1
Формат : MPEG Audio
Версия формата : Version 1
Профиль формата : Layer 3
Идентификатор кодека : 55
Идентификатор кодека/Подсказка : MP3
Продолжительность : 2 ч. 18 м.
Вид битрейта : Постоянный
Битрейт : 128 Кбит/сек
Каналы : 2 канала
Частота : 48,0 КГц
Метод сжатия : С потерями
Размер потока : 127 Мбайт (15%)
Выравнивание : Соединение по промежуткам
Продолжительность промежутка : 42 мс. (1,00 видеокадр)
Время предзагрузки промежутка : 504 ms
Библиотека кодирования : LAME3.97
Настройки программы : -m s -V 4 -q 2 -lowpass 17 -b 128
Скриншоты:


Смотреть Online

http://moonwalk.cc/video/a8dac271c06bbf24148df251c8953039/iframe
Детали торрента:
Название:Матрица: Перезагрузка / The Matrix Reloaded (2003) HDRip
Дата добавления:01 Июл 2011 16:27:06
Размер:835 MB
Раздают:
Качают:0
Форум:Зарубежные Фильмы (HD*Rip/LQ, DVDRip, SATRip, VHSRip)

All rights reserved © 2015-2018