TORRENTS43.COM

Скачать The Flight Of Sleipnir - Essence Of Nine (2011) [FLAC|Lossless]<Stoner/Doom Metal/Folk Metal>


The Flight Of Sleipnir - Essence Of Nine (2011)
Год: 2011
Жанр: Stoner/Doom Metal/Folk Metal
Страна: США
Продолжительность: 00:37:34

Издатель: Eyes Like Snow
Номер по каталогу: EYE 020
Кодек: FLAC (image+.cue)
Битрейт: Lossless

Трек лист:
01. Transcendence (5:10)
02. Upon This Path We Tread (5:33)
03. A Thousand Stones (3:43)
04. As Ashes Rise (The Embrace Of Dusk) (4:00)
05. Nine Worlds (7:31)
06. The Seer In White (4:30)
07. As Cinders Burn (The Wake Of Dawn) (1:35)
08. The Serpent Ring (5:31)

Отчёт ЕАС:

Код:

Exact Audio Copy V1.0 beta 1 from 15. November 2010

EAC extraction logfile from 27. June 2011, 18:52

The Flight Of Sleipnir / Essence Of Nine

Used drive  : HL-DT-STDVDRAM GSA-4167B   Adapter: 0  ID: 0

Read mode               : Secure
Utilize accurate stream : Yes
Defeat audio cache      : Yes
Make use of C2 pointers : No

Read offset correction                      : 667
Overread into Lead-In and Lead-Out          : No
Fill up missing offset samples with silence : Yes
Delete leading and trailing silent blocks   : No
Null samples used in CRC calculations       : Yes
Used interface                              : Native Win32 interface for Win NT & 2000

Used output format : Internal WAV Routines
Sample format      : 44.100 Hz; 16 Bit; Stereo

TOC of the extracted CD

     Track |   Start  |  Length  | Start sector | End sector
    ---------------------------------------------------------
        1  |  0:00.00 |  5:10.36 |         0    |    23285
        2  |  5:10.36 |  5:32.69 |     23286    |    48254
        3  | 10:43.30 |  3:43.15 |     48255    |    64994
        4  | 14:26.45 |  3:59.69 |     64995    |    82988
        5  | 18:26.39 |  7:31.15 |     82989    |   116828
        6  | 25:57.54 |  4:30.21 |    116829    |   137099
        7  | 30:28.00 |  1:34.62 |    137100    |   144211
        8  | 32:02.62 |  5:31.14 |    144212    |   169050

Range status and errors

Selected range

     Filename D:\Music\The Flight Of Sleipnir\The Flight Of Sleipnir - Essence Of Nine (2011)\The Flight Of Sleipnir - Essence Of Nine.wav

     Peak level 100.0 %
     Extraction speed 0.8 X
     Range quality 100.0 %
     Test CRC 7D897789
     Copy CRC 7D897789
     Copy OK

No errors occurred

AccurateRip summary

Track  1  not present in database
Track  2  not present in database
Track  3  not present in database
Track  4  not present in database
Track  5  not present in database
Track  6  not present in database
Track  7  not present in database
Track  8  not present in database

None of the tracks are present in the AccurateRip database

End of status report

==== Log checksum 0B9C9A3404AB0AB0BE353CCE02E1A142C3A5FF31F4C67529446A6A3DB51375AB ====

Отчёт auCDtect Task manager:

Код:

-----------------------

DON'T MODIFY THIS FILE

-----------------------

PERFORMER: auCDtect Task Manager, ver. 1.5.1RC4 build 1.5.1.5
Copyright (c) 2008-2010 y-soft. All rights reserved
http://y-soft.org

ANALYZER: auCDtect: CD records authenticity detector, version 0.8.2
Copyright (c) 2004 Oleg Berngardt. All rights reserved.
Copyright (c) 2004 Alexander Djourik. All rights reserved.

FILE: The Flight Of Sleipnir - Essence Of Nine.flac
  Size: 268758301 Hash: 5CE297287A5A4C67954B8F46D6A7DCD3 Accuracy: -m0
  Conclusion: CDDA 99%
  Signature: 142C96E82F81D05051EE8ACD6C3F36A72D983F8C

Дополнительная информация:

Метал группа The Flight Of Sleipnir была сформирована в 2007 году в США.

Состав:
Clayton Cushman - гитара, вокал, бас, клавишные
David Csicsely - ударные, вокал, гитара

Myspace
Оф. сайт группы
Детали торрента:
Название:The Flight Of Sleipnir - Essence Of Nine (2011) [FLAC|Lossless]<Stoner/Doom Metal/Folk Metal>
Дата добавления:03 Июл 2011 15:07:04
Размер:369 MB
Раздают:
Качают:0
Форум:Metal (Lossless)

All rights reserved © 2015-2018