TORRENTS43.COM

Скачать The Horrors - 5 альбомов, 1 EP (2006 - 2017) [FLAC|Lossless|tracks + .cue]<Indie, Psychedelic, Post-Punk>


The Horrors - 5 альбомов, 1 EP (2006 - 2017)
Год: 2006 - 2017
Жанр: Indie, Psychedelic, Post-Punk
Продолжительность: 04:24:33

Кодек: FLAC
Тип раздачи: tracks + .cue
Битрейт: Lossless


Описание: The Horrors (по русскому аналог «ужас», «кошмар») британская банда. Пугать надо так, чтобы было стильно, азартно и весело, решили они. И еще громко. Решили - и начали действовать. «Психотические звуки для уродов и извращенцев» - такой подзаголовок-подсказку, с легкой руки фанов, дали они своему дебютному альбому, который носит туманное и непритязательное название «Strange House» и вмещает действительно неплохое собрание разнообразных психо-звуков для нестандартно мыслящих личностей.
Слушателям ведь нравится, когда их пугают. И Horrors не намерены оставлять их без очередной порции адреналиновой встряски. Каждые два года Horrors напоминают о себе новыми "забавными" альбомчиками.
А вот последний альбом "Luminous" вышел через три года. Устали ребята надрываться и пугать , выросли, успокоились. Это естественный путь в развитии любой команды, человека. Нужно и о жизни подумать.


Треклист:
Список альбомов:
2007 - Strange House
2009 - Primary Colours
2011 - Skying


Трек лист:

2006 - The Horrors EP /2006 Stolen Transmission/

Страна-производитель диска: US
Номер по каталогу: B0007724-02
Наличие сканов: да, полные
Источник (релизер): Soliloquy
Трeклист:

01. Death At The Chapel (1:52)
02. Crawdaddy Simone (3:16)
03. Sheena Is A Parasite (1:42)
04. Jack The Ripper (2:32)
05. Excellent Choice (3:04)

Лог создания рипа

Exact Audio Copy V1.0 beta 3 from 29. August 2011

EAC extraction logfile from 8. May 2017, 23:05

The Horrors / The Horrors

Used drive : TSSTcorpCDDVDW TS-H653N Adapter: 0 ID: 0

Read mode : Secure
Utilize accurate stream : Yes
Defeat audio cache : Yes
Make use of C2 pointers : No

Read offset correction : 6
Overread into Lead-In and Lead-Out : No
Fill up missing offset samples with silence : Yes
Delete leading and trailing silent blocks : No
Null samples used in CRC calculations : Yes
Used interface : Native Win32 interface for Win NT & 2000
Gap handling : Appended to previous track

Used output format : User Defined Encoder
Selected bitrate : 1024 kBit/s
Quality : High
Add ID3 tag : No
Command line compressor : C:\Program Files (x86)\Exact Audio Copy\Flac\flac.exe
Additional command line options : -8 -e -V -T "ARTIST=%artist%" -T "TITLE=%title%" -T "ALBUM=%albumtitle%" -T "DATE=%year%" -T "TRACKNUMBER=%tracknr%" -T "GENRE=%genre%" -T "PERFORMER=%albuminterpret%" -T "COMPOSER=%composer%" %haslyrics%--tag-from-file=LYRICS="%lyricsfile%"%haslyrics% -T "ALBUMARTIST=%albumartist%" -T "DISCNUMBER=%cdnumber%" -T "TOTALDISCS=%totalcds%" -T "TOTALTRACKS=%numtracks%" -T "COMMENT=%comment%" %source% -o %dest%

TOC of the extracted CD

Track | Start | Length | Start sector | End sector
---------------------------------------------------------
1 | 0:00.00 | 1:52.19 | 0 | 8418
2 | 1:52.19 | 3:16.06 | 8419 | 23124
3 | 5:08.25 | 1:42.19 | 23125 | 30793
4 | 6:50.44 | 2:32.19 | 30794 | 42212
5 | 9:22.63 | 3:04.36 | 42213 | 56048
6 | 14:59.24 | 12:26.32 | 67449 | 123430

Track 1

Filename C:\Users\Katherine\Downloads\The Horrors - The Horrors (2006) [FLAC]\01. Death At The Chapel.wav

Pre-gap length 0:00:02.00

Peak level 99.9 %
Extraction speed 1.6 X
Track quality 100.0 %
Test CRC 297BE709
Copy CRC 297BE709
Accurately ripped (confidence 8) [83F7495C] (AR v2)
Copy OK

Track 2

Filename C:\Users\Katherine\Downloads\The Horrors - The Horrors (2006) [FLAC]\02. Crawdaddy Simone.wav

Pre-gap length 0:00:01.38

Peak level 99.9 %
Extraction speed 2.0 X
Track quality 100.0 %
Test CRC 123C5F84
Copy CRC 123C5F84
Accurately ripped (confidence 9) [26077608] (AR v2)
Copy OK

Track 3

Filename C:\Users\Katherine\Downloads\The Horrors - The Horrors (2006) [FLAC]\03. Sheena Is A Parasite.wav

Pre-gap length 0:00:01.04

Peak level 99.9 %
Extraction speed 1.4 X
Track quality 99.8 %
Test CRC 5C637FB5
Copy CRC 5C637FB5
Accurately ripped (confidence 9) [585F0BF2] (AR v2)
Copy OK

Track 4

Filename C:\Users\Katherine\Downloads\The Horrors - The Horrors (2006) [FLAC]\04. Jack The Ripper.wav

Pre-gap length 0:00:00.96

Peak level 99.9 %
Extraction speed 2.1 X
Track quality 100.0 %
Test CRC AE12A641
Copy CRC AE12A641
Accurately ripped (confidence 9) [F5716C84] (AR v2)
Copy OK

Track 5

Filename C:\Users\Katherine\Downloads\The Horrors - The Horrors (2006) [FLAC]\05. Excellent Choice.wav

Pre-gap length 0:00:00.72

Peak level 99.9 %
Extraction speed 2.2 X
Track quality 100.0 %
Test CRC D9E32BC3
Copy CRC D9E32BC3
Accurately ripped (confidence 8) [D46F301A] (AR v2)
Copy OK

All tracks accurately ripped

No errors occurred

End of status report

---- CUETools DB Plugin V2.1.3

[CTDB TOCID: HDfsXlqul0.WyPMXQbNDZX2eywA-] found, Submit result: HDfsXlqul0.WyPMXQbNDZX2eywA- has been confirmed
[4c45d3cd] (7/7) Accurately ripped

==== Log checksum 7609DD208A4349FB0C1D9C1F69D8BAC6674DBB38A0F814A2D308DCCFC243B82B ====

Содержание индексной карты (.CUE)

REM DATE 2006
REM DISCID 2C066D06
REM COMMENT "ExactAudioCopy v1.0b3"
CATALOG 0602517058903
PERFORMER "The Horrors"
TITLE "The Horrors"
FILE "01. Death At The Chapel.wav" WAVE
TRACK 01 AUDIO
TITLE "Death At The Chapel"
PERFORMER "The Horrors"
ISRC GAeM70601628
INDEX 01 00:00:00
TRACK 02 AUDIO
TITLE "Crawdaddy Simone"
PERFORMER "The Horrors"
ISRC GAeM70601629
INDEX 00 01:50:65
FILE "02. Crawdaddy Simone.wav" WAVE
INDEX 01 00:00:00
TRACK 03 AUDIO
TITLE "Sheena Is A Parasite"
PERFORMER "The Horrors"
ISRC GAeM70601630
INDEX 00 03:15:03
FILE "03. Sheena Is A Parasite.wav" WAVE
INDEX 01 00:00:00
TRACK 04 AUDIO
TITLE "Jack The Ripper"
PERFORMER "The Horrors"
ISRC GAeM70602772
INDEX 00 01:41:22
FILE "04. Jack The Ripper.wav" WAVE
INDEX 01 00:00:00
TRACK 05 AUDIO
TITLE "Excellent Choice"
PERFORMER "The Horrors"
ISRC GAeM70602773
INDEX 00 02:31:40
FILE "05. Excellent Choice.wav" WAVE
INDEX 01 00:00:00
TRACK 06 MODEx/2xxx
TITLE "Sheena Is A Parasite"
PERFORMER "The Horrors"
ISRC GAe270600924
INDEX 00 03:04:36

Лог проверки качества

-----------------------

DON'T MODIFY THIS FILE

-----------------------

PERFORMER: auCDtect Task Manager, ver. 1.6.0 RC1 build 1.6.0.1
Copyright (c) 2008-2010 y-soft. All rights reserved
http://y-soft.org

ANALYZER: auCDtect: CD records authenticity detector, version 0.8.2
Copyright (c) 2004 Oleg Berngardt. All rights reserved.
Copyright (c) 2004 Alexander Djourik. All rights reserved.

FILE: 05. Excellent Choice.flac
Size: 21651858 Hash: 8F19BEEBB6D48317F44B6DA5B8A9FA50 Accuracy: -m0
Conclusion: CDDA 87%
Signature: 86EE0B56B72F82761E9CF7FAABD22ADC221DD83B
FILE: 04. Jack The Ripper.flac
Size: 17087050 Hash: 63B87ACDFC277254D623866F596A7B35 Accuracy: -m0
Conclusion: CDDA 100%
Signature: 5CC8F52EE192D09F8E3F55C0E8B2A083683A1A75
FILE: 03. Sheena Is A Parasite.flac
Size: 12892581 Hash: D2F67E56A97CC734067BC73384214556 Accuracy: -m0
Conclusion: MPEG 99%
Signature: 6F4943218F055387D7551E81DBED34ECD671A9B5
FILE: 02. Crawdaddy Simone.flac
Size: 24119771 Hash: EA114A5C0B182383AB9F99878E2B7326 Accuracy: -m0
Conclusion: CDDA 100%
Signature: 5A3392155106A910E21214F7B7E8352F0D6A9B74
FILE: 01. Death At The Chapel.flac
Size: 15248910 Hash: 2A3536B54854466305650EB1268C921F Accuracy: -m0
Conclusion: CDDA 100%
Signature: 0B1D7E4A53200AA6A5BB694DBD931B61F61F4E26

Spectrogram:

Прoдолжительность: 00:12:27

2007 - Strange House /2007 Polydor/

Страна-производитель диска: Japan
Номер по каталогу: UICP-1080
Наличие сканов: да, полные
Источник (релизер): g.y.m.
Трeклист:

01. Jack The Ripper (3:01)
02. Count In Five (3:14)
03. Draw Japan (3:24)
04. Gloves (2:51)
05. Excellent Choice (2:53)
06. Little Victories (2:40)
07. She Is The New Thing (3:22)
08. Sheena Is A Parasite (1:42)
09. Thunderclaps (3:07)
10. Gil Sleeping (4:51)
11. A Train Roars (6:55)
12. Death At The Chapel (2:19)
13. Horrors' Theme (3:30)
14. Kicking Kay (2:35)

Лог создания рипа

Exact Audio Copy V1.1 from 23. June 2015

EAC extraction logfile from 20. June 2017, 12:53

The Horrors / Strange House [UICP-1080]

Used drive : HL-DT-STDVDRAM GH24NSD0 Adapter: 1 ID: 0

Read mode : Secure
Utilize accurate stream : Yes
Defeat audio cache : Yes
Make use of C2 pointers : No

Read offset correction : 6
Overread into Lead-In and Lead-Out : No
Fill up missing offset samples with silence : Yes
Delete leading and trailing silent blocks : No
Null samples used in CRC calculations : Yes
Used interface : Native Win32 interface for Win NT & 2000
Gap handling : Appended to previous track

Used output format : User Defined Encoder
Selected bitrate : 768 kBit/s
Quality : High
Add ID3 tag : No
Command line compressor : C:\Program Files (x86)\Exact Audio Copy\FLAC\FLAC.EXE
Additional command line options : -V -8 -T "Genre=%genre%" -T "Artist=%artist%" -T "Title=%title%" -T "Album=%albumtitle%" -T "Date=%year%" -T "Tracknumber=%tracknr%" -T "Comment=%comment%" %source%

TOC of the extracted CD

Track | Start | Length | Start sector | End sector
---------------------------------------------------------
1 | 0:00.00 | 3:00.55 | 0 | 13554
2 | 3:00.55 | 3:13.59 | 13555 | 28088
3 | 6:14.39 | 3:23.73 | 28089 | 43386
4 | 9:38.37 | 2:50.42 | 43387 | 56178
5 | 12:29.04 | 2:53.18 | 56179 | 69171
6 | 15:22.22 | 2:39.70 | 69172 | 81166
7 | 18:02.17 | 3:21.49 | 81167 | 96290
8 | 21:23.66 | 1:42.32 | 96291 | 103972
9 | 23:06.23 | 3:06.50 | 103973 | 117972
10 | 26:12.73 | 4:50.52 | 117973 | 139774
11 | 31:03.50 | 6:55.09 | 139775 | 170908
12 | 37:58.59 | 2:18.67 | 170909 | 181325
13 | 40:17.51 | 3:29.57 | 181326 | 197057
14 | 43:47.33 | 2:34.74 | 197058 | 208681

Track 1

Filename D:\g.y.m\Horrors, The - Strange House (2007) [UICP-1080]\01. Jack The Ripper.wav

Pre-gap length 0:00:02.00

Peak level 92.0 %
Extraction speed 0.9 X
Track quality 100.0 %
Test CRC 4B5625D0
Copy CRC 4B5625D0
Accurately ripped (confidence 2) [7CA1CADC] (AR v1)
Copy OK

Track 2

Filename D:\g.y.m\Horrors, The - Strange House (2007) [UICP-1080]\02. Count In Five.wav

Pre-gap length 0:00:00.05

Peak level 92.6 %
Extraction speed 1.1 X
Track quality 100.0 %
Test CRC 0D4C166E
Copy CRC 0D4C166E
Accurately ripped (confidence 2) [4028FED0] (AR v1)
Copy OK

Track 3

Filename D:\g.y.m\Horrors, The - Strange House (2007) [UICP-1080]\03. Draw Japan.wav

Peak level 93.6 %
Extraction speed 1.2 X
Track quality 100.0 %
Test CRC 33F7916B
Copy CRC 33F7916B
Accurately ripped (confidence 2) [5EAAA5A1] (AR v1)
Copy OK

Track 4

Filename D:\g.y.m\Horrors, The - Strange House (2007) [UICP-1080]\04. Gloves.wav

Peak level 93.5 %
Extraction speed 1.2 X
Track quality 100.0 %
Test CRC 1395DE39
Copy CRC 1395DE39
Accurately ripped (confidence 2) [BAED93A5] (AR v1)
Copy OK

Track 5

Filename D:\g.y.m\Horrors, The - Strange House (2007) [UICP-1080]\05. Excellent Choice.wav

Pre-gap length 0:00:01.34

Peak level 92.2 %
Extraction speed 1.3 X
Track quality 100.0 %
Test CRC 0085B481
Copy CRC 0085B481
Accurately ripped (confidence 2) [11369601] (AR v1)
Copy OK

Track 6

Filename D:\g.y.m\Horrors, The - Strange House (2007) [UICP-1080]\06. Little Victories.wav

Pre-gap length 0:00:00.35

Peak level 93.3 %
Extraction speed 1.3 X
Track quality 100.0 %
Test CRC 33C0B39D
Copy CRC 33C0B39D
Accurately ripped (confidence 2) [5544D8DA] (AR v1)
Copy OK

Track 7

Filename D:\g.y.m\Horrors, The - Strange House (2007) [UICP-1080]\07. She Is The New Thing.wav

Peak level 92.3 %
Extraction speed 1.4 X
Track quality 100.0 %
Test CRC 280AB547
Copy CRC 280AB547
Accurately ripped (confidence 2) [538F38A4] (AR v1)
Copy OK

Track 8

Filename D:\g.y.m\Horrors, The - Strange House (2007) [UICP-1080]\08. Sheena Is A Parasite.wav

Pre-gap length 0:00:00.51

Peak level 95.3 %
Extraction speed 1.3 X
Track quality 100.0 %
Test CRC 44071575
Copy CRC 44071575
Accurately ripped (confidence 2) [3E6E2029] (AR v1)
Copy OK

Track 9

Filename D:\g.y.m\Horrors, The - Strange House (2007) [UICP-1080]\09. Thunderclaps.wav

Pre-gap length 0:00:00.39

Peak level 92.5 %
Extraction speed 1.5 X
Track quality 100.0 %
Test CRC A3B0FE03
Copy CRC A3B0FE03
Accurately ripped (confidence 2) [4CE893B0] (AR v1)
Copy OK

Track 10

Filename D:\g.y.m\Horrors, The - Strange House (2007) [UICP-1080]\10. Gil Sleeping.wav

Pre-gap length 0:00:00.62

Peak level 96.1 %
Extraction speed 1.7 X
Track quality 100.0 %
Test CRC E1ACF370
Copy CRC E1ACF370
Accurately ripped (confidence 2) [DEB98E9D] (AR v1)
Copy OK

Track 11

Filename D:\g.y.m\Horrors, The - Strange House (2007) [UICP-1080]\11. A Train Roars.wav

Peak level 92.2 %
Extraction speed 0.4 X
Track quality 100.0 %
Test CRC 4646E535
Copy CRC 4646E535
Accurately ripped (confidence 2) [89F6BE5E] (AR v1)
Copy OK

Track 12

Filename D:\g.y.m\Horrors, The - Strange House (2007) [UICP-1080]\12. Death At The Chapel.wav

Pre-gap length 0:02:59.14

Peak level 99.2 %
Extraction speed 1.7 X
Track quality 100.0 %
Test CRC 5BCAA9D9
Copy CRC 5BCAA9D9
Accurately ripped (confidence 2) [C3571F03] (AR v1)
Copy OK

Track 13

Filename D:\g.y.m\Horrors, The - Strange House (2007) [UICP-1080]\13. Horrors' Theme.wav

Pre-gap length 0:00:00.56

Peak level 97.6 %
Extraction speed 1.8 X
Track quality 100.0 %
Test CRC 273CA622
Copy CRC 273CA622
Accurately ripped (confidence 2) [1B4A7504] (AR v1)
Copy OK

Track 14

Filename D:\g.y.m\Horrors, The - Strange House (2007) [UICP-1080]\14. Kicking Kay.wav

Pre-gap length 0:00:00.16

Peak level 98.8 %
Extraction speed 1.8 X
Track quality 100.0 %
Test CRC 855FA79F
Copy CRC 855FA79F
Accurately ripped (confidence 2) [9C8FE5C9] (AR v1)
Copy OK

All tracks accurately ripped

No errors occurred

End of status report

==== Log checksum C4348196E5AA401FF10B162C9CF15DF6BDC632582122AB4F3ED82D430C0F628A ====

Содержание индексной карты (.CUE)

REM GENRE "Garage Rock"
REM DATE 2007
REM DISCID CB0ADE0E
REM COMMENT "ExactAudioCopy v1.1"
PERFORMER "The Horrors"
TITLE "Strange House [UICP-1080]"
FILE "01. Jack The Ripper.wav" WAVE
TRACK 01 AUDIO
TITLE "Jack The Ripper"
PERFORMER "The Horrors"
INDEX 01 00:00:00
TRACK 02 AUDIO
TITLE "Count In Five"
PERFORMER "The Horrors"
INDEX 00 03:00:50
FILE "02. Count In Five.wav" WAVE
INDEX 01 00:00:00
FILE "03. Draw Japan.wav" WAVE
TRACK 03 AUDIO
TITLE "Draw Japan"
PERFORMER "The Horrors"
INDEX 01 00:00:00
FILE "04. Gloves.wav" WAVE
TRACK 04 AUDIO
TITLE "Gloves"
PERFORMER "The Horrors"
INDEX 01 00:00:00
TRACK 05 AUDIO
TITLE "Excellent Choice"
PERFORMER "The Horrors"
INDEX 00 02:49:08
FILE "05. Excellent Choice.wav" WAVE
INDEX 01 00:00:00
TRACK 06 AUDIO
TITLE "Little Victories"
PERFORMER "The Horrors"
INDEX 00 02:52:58
FILE "06. Little Victories.wav" WAVE
INDEX 01 00:00:00
FILE "07. She Is The New Thing.wav" WAVE
TRACK 07 AUDIO
TITLE "She Is The New Thing"
PERFORMER "The Horrors"
INDEX 01 00:00:00
TRACK 08 AUDIO
TITLE "Sheena Is A Parasite"
PERFORMER "The Horrors"
INDEX 00 03:20:73
FILE "08. Sheena Is A Parasite.wav" WAVE
INDEX 01 00:00:00
TRACK 09 AUDIO
TITLE "Thunderclaps"
PERFORMER "The Horrors"
INDEX 00 01:41:68
FILE "09. Thunderclaps.wav" WAVE
INDEX 01 00:00:00
TRACK 10 AUDIO
TITLE "Gil Sleeping"
PERFORMER "The Horrors"
INDEX 00 03:05:63
FILE "10. Gil Sleeping.wav" WAVE
INDEX 01 00:00:00
FILE "11. A Train Roars.wav" WAVE
TRACK 11 AUDIO
TITLE "A Train Roars"
PERFORMER "The Horrors"
INDEX 01 00:00:00
TRACK 12 AUDIO
TITLE "Death At The Chapel"
PERFORMER "The Horrors"
INDEX 00 03:55:70
FILE "12. Death At The Chapel.wav" WAVE
INDEX 01 00:00:00
TRACK 13 AUDIO
TITLE "Horrors' Theme"
PERFORMER "The Horrors"
INDEX 00 02:18:11
FILE "13. Horrors' Theme.wav" WAVE
INDEX 01 00:00:00
TRACK 14 AUDIO
TITLE "Kicking Kay"
PERFORMER "The Horrors"
INDEX 00 03:29:41
FILE "14. Kicking Kay.wav" WAVE
INDEX 01 00:00:00

Лог проверки качества

-----------------------

DON'T MODIFY THIS FILE

-----------------------

PERFORMER: auCDtect Task Manager, ver. 1.6.0 RC1 build 1.6.0.1
Copyright (c) 2008-2010 y-soft. All rights reserved
http://y-soft.org

ANALYZER: auCDtect: CD records authenticity detector, version 0.8.2
Copyright (c) 2004 Oleg Berngardt. All rights reserved.
Copyright (c) 2004 Alexander Djourik. All rights reserved.

FILE: 14. Kicking Kay.flac
Size: 17191284 Hash: AE70F808F23FA3094E0C352DAC559AFF Accuracy: -m0
Conclusion: CDDA 100%
Signature: B17A7DDAE2D9BEA1E67FB6D2CABE04D90702861F
FILE: 13. Horrors' Theme.flac
Size: 26732779 Hash: 035F727583879938124D6E88D451FB77 Accuracy: -m0
Conclusion: CDDA 99%
Signature: 8413ED8B922C0B4C19D5CB6533565E7E34099B03
FILE: 12. Death At The Chapel.flac
Size: 17094910 Hash: E415DBEBC411CF5B30346A3883D9485F Accuracy: -m0
Conclusion: CDDA 100%
Signature: 835C73C90E6B113DD48E3D390DE79124007C8A7A
FILE: 11. A Train Roars.flac
Size: 23921032 Hash: 2C3056DA383046410B100CAE9712EBFE Accuracy: -m0
Conclusion: CDDA 100%
Signature: F51CB5E6AFE4131F22DBFEC0975239A2C24A8A41
FILE: 10. Gil Sleeping.flac
Size: 31316042 Hash: 1893D50C34FC06D60FA3022DECBF9A0A Accuracy: -m0
Conclusion: CDDA 100%
Signature: 90A05BA95476F13F573FDD8A9EF8149ECF0E8D1C
FILE: 09. Thunderclaps.flac
Size: 21310789 Hash: 23A8A7E81654554192BD0EBC799961F4 Accuracy: -m0
Conclusion: CDDA 100%
Signature: 009269D1FFE9B2100D37A9B7ABDEC6C6DFC8F1D8
FILE: 08. Sheena Is A Parasite.flac
Size: 13263520 Hash: 87AC9FB0E4D57BF53C276C1C0C48D120 Accuracy: -m0
Conclusion: CDDA 100%
Signature: 09590B090714EE1BA0813E5554C85E7644C0DD71
FILE: 07. She Is The New Thing.flac
Size: 23146545 Hash: E064C6CBAD47AAD616E8886065289D5A Accuracy: -m0
Conclusion: CDDA 100%
Signature: E32C25B7A0AD8A66F4A93EC9A51ACCF7E9BBAEB1
FILE: 06. Little Victories.flac
Size: 20393310 Hash: D2ACD36CF141CAC81BB7BB329E07D47D Accuracy: -m0
Conclusion: CDDA 100%
Signature: 517C1DA13976D91BE8A3250CA878F3B41A7E6648
FILE: 05. Excellent Choice.flac
Size: 19266400 Hash: 48264AAF1400FB50F206CFDD63C203D4 Accuracy: -m0
Conclusion: CDDA 99%
Signature: 92979F0D07902317BF407B0D31FD233335D4A496
FILE: 04. Gloves.flac
Size: 21931823 Hash: 06F850D20EA220539DBF5DFC852343A6 Accuracy: -m0
Conclusion: CDDA 100%
Signature: D5001C2629249BA6B2B0854F845B36738005A3F1
FILE: 03. Draw Japan.flac
Size: 26177961 Hash: C12F0FBA325B00F5769CBE078DF2BACE Accuracy: -m0
Conclusion: CDDA 99%
Signature: 1586B4BC070364443689947DD0ECAD0C4546C976
FILE: 02. Count In Five.flac
Size: 24772547 Hash: 2B3DAAD403370EEB35B753047D993B07 Accuracy: -m0
Conclusion: CDDA 99%
Signature: 88048A001B9755FF3DF8B14A4FB4D0D8AB7DABB3
FILE: 01. Jack The Ripper.flac
Size: 19906312 Hash: BE0F5B666217477C5D1FD5B07268751A Accuracy: -m0
Conclusion: CDDA 99%
Signature: C366A23A3BCA32111F52400053100AA0B51CB7D6
Прoдолжительность: 00:46:22

2009 - Primary Colours /2009 XL Recordings/

Страна-производитель диска: UK, Europe & US
Номер по каталогу: xlcd 418
Наличие сканов: да
Источник (релизер): GivenToFly
Трeклист:

01. Mirror's Image (4:51)
02. Three Decades (2:50)
03. Who Can Say (3:41)
04. Do You Remember (3:28)
05. New Ice Age (4:25)
06. Scarlet Fields (4:43)
07. I Only Think of You (7:07)
08. I Can't Control Myself (3:27)
09. Primary Colours (3:02)
10. Sea Within a Sea (7:58)

Лог создания рипа

Exact Audio Copy V1.0 beta 3 from 29. August 2011

EAC extraction logfile from 27. November 2016, 9:58

The Horrors / Primary Colours

Used drive : PLDS DVD-RW DS8A8SH Adapter: 0 ID: 1

Read mode : Secure
Utilize accurate stream : Yes
Defeat audio cache : Yes
Make use of C2 pointers : No

Read offset correction : 6
Overread into Lead-In and Lead-Out : No
Fill up missing offset samples with silence : Yes
Delete leading and trailing silent blocks : No
Null samples used in CRC calculations : Yes
Used interface : Native Win32 interface for Win NT & 2000
Gap handling : Appended to previous track

Used output format : User Defined Encoder
Selected bitrate : 128 kBit/s
Quality : High
Add ID3 tag : No
Command line compressor : C:\Program Files (x86)\Exact Audio Copy\Flac\flac.exe
Additional command line options : -8 -V -T "ARTIST=%artist%" -T "TITLE=%title%" -T "ALBUM=%albumtitle%" -T "DATE=%year%" -T "TRACKNUMBER=%tracknr%" -T "GENRE=%genre%" -T "PERFORMER=%albuminterpret%" -T "COMPOSER=%composer%" %haslyrics%--tag-from-file=LYRICS="%lyricsfile%"%haslyrics% -T "ALBUMARTIST=%albumartist%" -T "DISCNUMBER=%cdnumber%" -T "TOTALDISCS=%totalcds%" -T "TOTALTRACKS=%numtracks%" -T "COMMENT=%comment%" %source% -o %dest%

TOC of the extracted CD

Track | Start | Length | Start sector | End sector
---------------------------------------------------------
1 | 0:00.00 | 4:50.38 | 0 | 21787
2 | 4:50.38 | 2:49.48 | 21788 | 34510
3 | 7:40.11 | 3:41.03 | 34511 | 51088
4 | 11:21.14 | 3:28.12 | 51089 | 66700
5 | 14:49.26 | 4:25.07 | 66701 | 86582
6 | 19:14.33 | 4:42.48 | 86583 | 107780
7 | 23:57.06 | 7:06.73 | 107781 | 139803
8 | 31:04.04 | 3:27.35 | 139804 | 155363
9 | 34:31.39 | 3:01.54 | 155364 | 168992
10 | 37:33.18 | 7:58.37 | 168993 | 204879

Track 1

Filename C:\EAC Rips\The Horrors - Primary Colours [FLAC]\01 - Mirror's Image.wav

Pre-gap length 0:00:02.00

Peak level 100.0 %
Extraction speed 1.5 X
Track quality 99.9 %
Test CRC FCCAA6F0
Copy CRC FCCAA6F0
Accurately ripped (confidence 45) [B5621595] (AR v2)
Copy OK

Track 2

Filename C:\EAC Rips\The Horrors - Primary Colours [FLAC]\02 - Three Decades.wav

Peak level 100.0 %
Extraction speed 1.4 X
Track quality 99.9 %
Test CRC 6B330762
Copy CRC 6B330762
Accurately ripped (confidence 45) [71272B08] (AR v2)
Copy OK

Track 3

Filename C:\EAC Rips\The Horrors - Primary Colours [FLAC]\03 - Who Can Say.wav

Peak level 100.0 %
Extraction speed 2.1 X
Track quality 100.0 %
Test CRC 71A1BAF9
Copy CRC 71A1BAF9
Accurately ripped (confidence 45) [9C28301D] (AR v2)
Copy OK

Track 4

Filename C:\EAC Rips\The Horrors - Primary Colours [FLAC]\04 - Do You Remember.wav

Peak level 100.0 %
Extraction speed 1.7 X
Track quality 99.9 %
Test CRC 7A7DD6E6
Copy CRC 7A7DD6E6
Accurately ripped (confidence 45) [246BF77A] (AR v2)
Copy OK

Track 5

Filename C:\EAC Rips\The Horrors - Primary Colours [FLAC]\05 - New Ice Age.wav

Peak level 100.0 %
Extraction speed 2.5 X
Track quality 100.0 %
Test CRC 595151D4
Copy CRC 595151D4
Accurately ripped (confidence 45) [D0D52B64] (AR v2)
Copy OK

Track 6

Filename C:\EAC Rips\The Horrors - Primary Colours [FLAC]\06 - Scarlet Fields.wav

Peak level 100.0 %
Extraction speed 2.7 X
Track quality 100.0 %
Test CRC 1B243B62
Copy CRC 1B243B62
Accurately ripped (confidence 45) [0C45B54F] (AR v2)
Copy OK

Track 7

Filename C:\EAC Rips\The Horrors - Primary Colours [FLAC]\07 - I Only Think of You.wav

Peak level 100.0 %
Extraction speed 3.0 X
Track quality 100.0 %
Test CRC 3BBF6C29
Copy CRC 3BBF6C29
Accurately ripped (confidence 45) [C632DF51] (AR v2)
Copy OK

Track 8

Filename C:\EAC Rips\The Horrors - Primary Colours [FLAC]\08 - I Can't Control Myself.wav

Peak level 100.0 %
Extraction speed 2.2 X
Track quality 99.9 %
Test CRC 4E69DF81
Copy CRC 4E69DF81
Accurately ripped (confidence 45) [9DCC7311] (AR v2)
Copy OK

Track 9

Filename C:\EAC Rips\The Horrors - Primary Colours [FLAC]\09 - Primary Colours.wav

Peak level 96.5 %
Extraction speed 3.0 X
Track quality 100.0 %
Test CRC 2DDDDA74
Copy CRC 2DDDDA74
Accurately ripped (confidence 45) [C3E51B4C] (AR v2)
Copy OK

Track 10

Filename C:\EAC Rips\The Horrors - Primary Colours [FLAC]\10 - Sea Within a Sea.wav

Peak level 100.0 %
Extraction speed 3.3 X
Track quality 100.0 %
Test CRC 0EDAD103
Copy CRC 0EDAD103
Accurately ripped (confidence 45) [34DF704B] (AR v2)
Copy OK

All tracks accurately ripped

No errors occurred

End of status report

==== Log checksum 656A1EA405F707906C15ED79DB1EB9DEE0E7BF74D8C66618DD854EC84776BA42 ====

Содержание индексной карты (.CUE)

REM GENRE Rock
REM DATE 2009
REM DISCID 8B0AAB0A
REM COMMENT "ExactAudioCopy v1.0b3"
PERFORMER "The Horrors"
TITLE "Primary Colours"
FILE "01 - Mirror's Image.wav" WAVE
TRACK 01 AUDIO
TITLE "Mirror's Image"
PERFORMER "The Horrors"
ISRC GBBKS0900055
INDEX 01 00:00:00
FILE "02 - Three Decades.wav" WAVE
TRACK 02 AUDIO
TITLE "Three Decades"
PERFORMER "The Horrors"
ISRC GBBKS0900059
INDEX 01 00:00:00
FILE "03 - Who Can Say.wav" WAVE
TRACK 03 AUDIO
TITLE "Who Can Say"
PERFORMER "The Horrors"
ISRC GBBKS0900057
INDEX 01 00:00:00
FILE "04 - Do You Remember.wav" WAVE
TRACK 04 AUDIO
TITLE "Do You Remember"
PERFORMER "The Horrors"
ISRC GBBKS0900058
INDEX 01 00:00:00
FILE "05 - New Ice Age.wav" WAVE
TRACK 05 AUDIO
TITLE "New Ice Age"
PERFORMER "The Horrors"
ISRC GBBKS0900061
INDEX 01 00:00:00
FILE "06 - Scarlet Fields.wav" WAVE
TRACK 06 AUDIO
TITLE "Scarlet Fields"
PERFORMER "The Horrors"
ISRC GBBKS0900063
INDEX 01 00:00:00
FILE "07 - I Only Think of You.wav" WAVE
TRACK 07 AUDIO
TITLE "I Only Think of You"
PERFORMER "The Horrors"
ISRC GBBKS0900054
INDEX 01 00:00:00
FILE "08 - I Can't Control Myself.wav" WAVE
TRACK 08 AUDIO
TITLE "I Can't Control Myself"
PERFORMER "The Horrors"
ISRC GBBKS0900062
INDEX 01 00:00:00
FILE "09 - Primary Colours.wav" WAVE
TRACK 09 AUDIO
TITLE "Primary Colours"
PERFORMER "The Horrors"
ISRC GBBKS0900060
INDEX 01 00:00:00
FILE "10 - Sea Within a Sea.wav" WAVE
TRACK 10 AUDIO
TITLE "Sea Within a Sea"
PERFORMER "The Horrors"
ISRC GBBKS0900056
INDEX 01 00:00:00

Лог проверки качества

-----------------------

DON'T MODIFY THIS FILE

-----------------------

PERFORMER: auCDtect Task Manager, ver. 1.6.0 RC1 build 1.6.0.1
Copyright (c) 2008-2010 y-soft. All rights reserved
http://y-soft.org

ANALYZER: auCDtect: CD records authenticity detector, version 0.8.2
Copyright (c) 2004 Oleg Berngardt. All rights reserved.
Copyright (c) 2004 Alexander Djourik. All rights reserved.

FILE: 10 - Sea Within a Sea.flac
Size: 56854241 Hash: 80BC30162FCD0F607387E7A4E580AB2E Accuracy: -m0
Conclusion: CDDA 100%
Signature: 26A087ECAF4831891A5FBE5D032283EF287E4745
FILE: 09 - Primary Colours.flac
Size: 22028437 Hash: 2C9224C292ECBB74274BD88579BA6BE4 Accuracy: -m0
Conclusion: CDDA 100%
Signature: CD15F3EA1DFF407F97E219D9FFB2B9C24E395D98
FILE: 08 - I Can't Control Myself.flac
Size: 26742607 Hash: EA64C931CD85202EF343D2F4B0124441 Accuracy: -m0
Conclusion: CDDA 99%
Signature: EBF1D9839A0E6EB9FDCA917E635078D846CF91EE
FILE: 07 - I Only Think of You.flac
Size: 49638204 Hash: 67357EB8801E095DB5DB05EA05DD9F3F Accuracy: -m0
Conclusion: CDDA 100%
Signature: 956C7A0E2CE8B646228B028B55FB0A6B8CA04F1C
FILE: 06 - Scarlet Fields.flac
Size: 33525752 Hash: 2981E6980CCBEBAE769C23841D0B05EC Accuracy: -m0
Conclusion: CDDA 100%
Signature: 0F83C37DB1D7C288AF8C1B57505E02CCE6CEBDB9
FILE: 05 - New Ice Age.flac
Size: 33571978 Hash: BBE5CCC49F4EEDE6DA90A95996F42C66 Accuracy: -m0
Conclusion: CDDA 99%
Signature: F3002B2CC087BB30AF120FFA840781AB2FB70F1A
FILE: 04 - Do You Remember.flac
Size: 27494879 Hash: 28651D10C250D2ABA031DBF2318EA68F Accuracy: -m0
Conclusion: CDDA 99%
Signature: A953C9FA82E2EC7C9FF30DF452204F6F4C9DAD83
FILE: 03 - Who Can Say.flac
Size: 30461222 Hash: CC0182E892A45A961A4D74DC8246EB4F Accuracy: -m0
Conclusion: CDDA 99%
Signature: DB1A2BE691CBC345670F54EA9D9C534E59E4013C
FILE: 02 - Three Decades.flac
Size: 23029604 Hash: 00876095755CA6DEC25DFCD524092C4A Accuracy: -m0
Conclusion: CDDA 100%
Signature: B0DEB53A8DFEBFB93062FF03130273A67CAC2E6A
FILE: 01 - Mirror's Image.flac
Size: 32635820 Hash: CBE78F53AD2F87BCEB4014084A25B2BC Accuracy: -m0
Conclusion: CDDA 100%
Signature: 4E35158F3242962DE214662540A1965823041D9F
Прoдолжительность: 00:45:32

2011 - Skying /2011 XL Recordings/

Страна-производитель диска: UK, Europe
Номер по каталогу: XLCD539
Наличие сканов: да
Источник (релизер): GivenToFly
Трeклист:

01. Changing The Rain (4:32)
02. You Said (4:46)
03. I Can See Through You (4:17)
04. Endless Blue (5:11)
05. Dive In (4:52)
06. Still Life (5:21)
07. Wild Eyed (4:04)
08. Moving Further Away (8:35)
09. Monica Gems (4:29)
10. Oceans Burning (7:50)

Лог создания рипа

X Lossless Decoder version 20110703 (135.1)

XLD extraction logfile from 2011-07-08 21:49:45 +1000

The Horrors / Skying

Used drive : MATSHITA DVD-R UJ-898 (revision HC10)

Ripper mode : XLD Secure Ripper
Disable audio cache : OK for the drive with a cache less than 1375KiB
Make use of C2 pointers : NO
Read offset correction : 102
Max retry count : 100
Gap status : Analyzed, Appended (except HTOA)

TOC of the extracted CD
Track | Start | Length | Start sector | End sector
---------------------------------------------------------
1 | 00:00:00 | 04:31:69 | 0 | 20393
2 | 04:31:69 | 04:46:10 | 20394 | 41853
3 | 09:18:04 | 04:17:27 | 41854 | 61155
4 | 13:35:31 | 05:10:42 | 61156 | 84447
5 | 18:45:73 | 04:51:62 | 84448 | 106334
6 | 23:37:60 | 05:21:10 | 106335 | 130419
7 | 28:58:70 | 04:04:33 | 130420 | 148752
8 | 33:03:28 | 08:34:48 | 148753 | 187350
9 | 41:38:01 | 04:28:65 | 187351 | 207515
10 | 46:06:66 | 07:50:01 | 207516 | 242766

AccurateRip Summary
Disc not found in AccurateRip DB.

All Tracks
Album gain : -8.78 dB
Peak : 1.000000
Statistics
Read error : 0
Jitter error (maybe fixed) : 0
Retry sector count : 0
Damaged sector count : 0

Track 01
Filename : /Users/louisecastrignano/Desktop/The Horrors - Skying/01 - Changing The Rain.mp3
/Users/louisecastrignano/Desktop/The Horrors - Skying/01 - Changing The Rain.flac
Pre-gap length : 00:02:00

Track gain : -7.87 dB
Peak : 1.000000
CRC32 hash (test run) : 254CAB72
CRC32 hash : 254CAB72
CRC32 hash (skip zero) : B5802438
AccurateRip signature : FE58C5BB
->Track not present in AccurateRip database.
Statistics
Read error : 0
Jitter error (maybe fixed) : 0
Retry sector count : 0
Damaged sector count : 0

Track 02
Filename : /Users/louisecastrignano/Desktop/The Horrors - Skying/02 - You Said.mp3
/Users/louisecastrignano/Desktop/The Horrors - Skying/02 - You Said.flac
Pre-gap length : 00:01:12

Track gain : -9.30 dB
Peak : 1.000000
CRC32 hash (test run) : 5A4FD7B0
CRC32 hash : 5A4FD7B0
CRC32 hash (skip zero) : F646FBFB
AccurateRip signature : 5703FD63
->Track not present in AccurateRip database.
Statistics
Read error : 0
Jitter error (maybe fixed) : 0
Retry sector count : 0
Damaged sector count : 0

Track 03
Filename : /Users/louisecastrignano/Desktop/The Horrors - Skying/03 - I Can See Through You.mp3
/Users/louisecastrignano/Desktop/The Horrors - Skying/03 - I Can See Through You.flac
Pre-gap length : 00:01:58

Track gain : -9.06 dB
Peak : 1.000000
CRC32 hash (test run) : CEBCDF97
CRC32 hash : CEBCDF97
CRC32 hash (skip zero) : C81F5213
AccurateRip signature : 9CDB31B0
->Track not present in AccurateRip database.
Statistics
Read error : 0
Jitter error (maybe fixed) : 0
Retry sector count : 0
Damaged sector count : 0

Track 04
Filename : /Users/louisecastrignano/Desktop/The Horrors - Skying/04 - Endless Blue.mp3
/Users/louisecastrignano/Desktop/The Horrors - Skying/04 - Endless Blue.flac
Pre-gap length : 00:01:64

Track gain : -9.45 dB
Peak : 1.000000
CRC32 hash (test run) : 4A3ED304
CRC32 hash : 4A3ED304
CRC32 hash (skip zero) : 6CF562F4
AccurateRip signature : 709584A7
->Track not present in AccurateRip database.
Statistics
Read error : 0
Jitter error (maybe fixed) : 0
Retry sector count : 0
Damaged sector count : 0

Track 05
Filename : /Users/louisecastrignano/Desktop/The Horrors - Skying/05 - Dive In.mp3
/Users/louisecastrignano/Desktop/The Horrors - Skying/05 - Dive In.flac

Track gain : -8.46 dB
Peak : 1.000000
CRC32 hash (test run) : 010C59E3
CRC32 hash : 010C59E3
CRC32 hash (skip zero) : EE35CC4E
AccurateRip signature : 899A9D2F
->Track not present in AccurateRip database.
Statistics
Read error : 0
Jitter error (maybe fixed) : 0
Retry sector count : 0
Damaged sector count : 0

Track 06
Filename : /Users/louisecastrignano/Desktop/The Horrors - Skying/06 - Still Life.mp3
/Users/louisecastrignano/Desktop/The Horrors - Skying/06 - Still Life.flac
Pre-gap length : 00:01:57

Track gain : -8.36 dB
Peak : 1.000000
CRC32 hash (test run) : 2279D632
CRC32 hash : 2279D632
CRC32 hash (skip zero) : 043040B8
AccurateRip signature : F7ED58A0
->Track not present in AccurateRip database.
Statistics
Read error : 0
Jitter error (maybe fixed) : 0
Retry sector count : 0
Damaged sector count : 0

Track 07
Filename : /Users/louisecastrignano/Desktop/The Horrors - Skying/07 - Wild Eyed.mp3
/Users/louisecastrignano/Desktop/The Horrors - Skying/07 - Wild Eyed.flac

Track gain : -7.68 dB
Peak : 1.000000
CRC32 hash (test run) : 568E7FC8
CRC32 hash : 568E7FC8
CRC32 hash (skip zero) : CFD052DD
AccurateRip signature : 70FE7A62
->Track not present in AccurateRip database.
Statistics
Read error : 0
Jitter error (maybe fixed) : 0
Retry sector count : 0
Damaged sector count : 0

Track 08
Filename : /Users/louisecastrignano/Desktop/The Horrors - Skying/08 - Moving Further Away.mp3
/Users/louisecastrignano/Desktop/The Horrors - Skying/08 - Moving Further Away.flac
Pre-gap length : 00:02:00

Track gain : -8.12 dB
Peak : 1.000000
CRC32 hash (test run) : FC3C402C
CRC32 hash : FC3C402C
CRC32 hash (skip zero) : F0A1F3BA
AccurateRip signature : 32008E4F
->Track not present in AccurateRip database.
Statistics
Read error : 0
Jitter error (maybe fixed) : 0
Retry sector count : 0
Damaged sector count : 0

Track 09
Filename : /Users/louisecastrignano/Desktop/The Horrors - Skying/09 - Monica Gems.mp3
/Users/louisecastrignano/Desktop/The Horrors - Skying/09 - Monica Gems.flac
Pre-gap length : 00:01:43

Track gain : -9.05 dB
Peak : 1.000000
CRC32 hash (test run) : 67CF9442
CRC32 hash : 67CF9442
CRC32 hash (skip zero) : EF45AC38
AccurateRip signature : 4DE6AD74
->Track not present in AccurateRip database.
Statistics
Read error : 0
Jitter error (maybe fixed) : 0
Retry sector count : 0
Damaged sector count : 0

Track 10
Filename : /Users/louisecastrignano/Desktop/The Horrors - Skying/10 - Oceans Burning.mp3
/Users/louisecastrignano/Desktop/The Horrors - Skying/10 - Oceans Burning.flac
Pre-gap length : 00:02:24

Track gain : -8.23 dB
Peak : 1.000000
CRC32 hash (test run) : 45EE3602
CRC32 hash : 45EE3602
CRC32 hash (skip zero) : 6F153D35
AccurateRip signature : 08F73343
->Track not present in AccurateRip database.
Statistics
Read error : 0
Jitter error (maybe fixed) : 0
Retry sector count : 0
Damaged sector count : 0

No errors occurred

End of status report

Содержание индексной карты (.CUE)

TITLE "Skying"
PERFORMER "The Horrors"
REM DATE "2011"
REM DISCNUMBER 1
REM TOTALDISCS 1
REM DISCID 840CA40A
FILE "01 - Changing The Rain.wav" WAVE
TRACK 01 AUDIO
TITLE "Changing The Rain"
PERFORMER "The Horrors"
INDEX 01 00:00:00
TRACK 02 AUDIO
TITLE "You Said"
PERFORMER "The Horrors"
ISRC GBBKS1100151
INDEX 00 04:30:57
FILE "02 - You Said.wav" WAVE
INDEX 01 00:00:00
TRACK 03 AUDIO
TITLE "I Can See Through You"
PERFORMER "The Horrors"
ISRC GBBKS1100152
INDEX 00 04:44:27
FILE "03 - I Can See Through You.wav" WAVE
INDEX 01 00:00:00
TRACK 04 AUDIO
TITLE "Endless Blue"
PERFORMER "The Horrors"
ISRC GBBKS1100153
INDEX 00 04:15:38
FILE "04 - Endless Blue.wav" WAVE
INDEX 01 00:00:00
FILE "05 - Dive In.wav" WAVE
TRACK 05 AUDIO
TITLE "Dive In"
PERFORMER "The Horrors"
ISRC GBBKS1100154
INDEX 01 00:00:00
TRACK 06 AUDIO
TITLE "Still Life"
PERFORMER "The Horrors"
ISRC GBBKS1100136
INDEX 00 04:50:05
FILE "06 - Still Life.wav" WAVE
INDEX 01 00:00:00
FILE "07 - Wild Eyed.wav" WAVE
TRACK 07 AUDIO
TITLE "Wild Eyed"
PERFORMER "The Horrors"
ISRC GBBKS1100157
INDEX 01 00:00:00
TRACK 08 AUDIO
TITLE "Moving Further Away"
PERFORMER "The Horrors"
ISRC GBBKS1100156
INDEX 00 04:02:33
FILE "08 - Moving Further Away.wav" WAVE
INDEX 01 00:00:00
TRACK 09 AUDIO
TITLE "Monica Gems"
PERFORMER "The Horrors"
ISRC GBBKS1100155
INDEX 00 08:33:05
FILE "09 - Monica Gems.wav" WAVE
INDEX 01 00:00:00
TRACK 10 AUDIO
TITLE "Oceans Burning"
PERFORMER "The Horrors"
ISRC GBBKS1100158
INDEX 00 04:26:41
FILE "10 - Oceans Burning.wav" WAVE
INDEX 01 00:00:00

Лог проверки качества

-----------------------

DON'T MODIFY THIS FILE

-----------------------

PERFORMER: auCDtect Task Manager, ver. 1.5.1RC4 build 1.5.1.5
Copyright (c) 2008-2010 y-soft. All rights reserved
http://y-soft.org

ANALYZER: auCDtect: CD records authenticity detector, version 0.8.2
Copyright (c) 2004 Oleg Berngardt. All rights reserved.
Copyright (c) 2004 Alexander Djourik. All rights reserved.

FILE: 10 - Oceans Burning.flac
Size: 54501914 Hash: 9E649761667EB2468F8F4EB5F378A56B Accuracy: -m0
Conclusion: CDDA 100%
Signature: CDA16F595F28475157078D59AD8E1C38A964E728
FILE: 09 - Monica Gems.flac
Size: 33592081 Hash: 8BE5B9B41ACC1E30E6AE5A0AC641A0CC Accuracy: -m0
Conclusion: CDDA 100%
Signature: BEEA25D807FDFF58EAAF3B8BCF6EE0E0F18BBE9E
FILE: 08 - Moving Further Away.flac
Size: 62583235 Hash: CAF6589A24B20504A96DBA682C5CFD78 Accuracy: -m0
Conclusion: CDDA 100%
Signature: DED62E31DC76806E8CEF3CAA214B9BD2341AF9EA
FILE: 07 - Wild Eyed.flac
Size: 27267453 Hash: 480EF3C15247414CF9A0DD3ABB19F8B0 Accuracy: -m0
Conclusion: CDDA 100%
Signature: CC57BEE1521C26AAA8607230F4D467F4F6AFC234
FILE: 06 - Still Life.flac
Size: 38916151 Hash: ADFB7A591CABFD37CDEC03B368BA6F26 Accuracy: -m0
Conclusion: CDDA 100%
Signature: 4CA818E619A68564F78E9A15AA161B84F293D9C7
FILE: 05 - Dive In.flac
Size: 38720677 Hash: E0E7DFBE19347ADDD4FBD900A75C7A39 Accuracy: -m0
Conclusion: CDDA 100%
Signature: 29434EA9BC8F26201B75FF636991959611621975
FILE: 04 - Endless Blue.flac
Size: 37876498 Hash: F87AB6D565C63A224732D49E87A826C4 Accuracy: -m0
Conclusion: CDDA 100%
Signature: 63F74A0CC19A88771C94B5ACED0F1E9F79D2A419
FILE: 03 - I Can See Through You.flac
Size: 34413746 Hash: DB90C6AC3F609C4B6A959A669AE9B07D Accuracy: -m0
Conclusion: CDDA 100%
Signature: E23BF912BC27CD751E7540E728CDD5DCC05609BD
FILE: 02 - You Said.flac
Size: 34883391 Hash: BA4F4B07A981245267516EE288C10001 Accuracy: -m0
Conclusion: CDDA 100%
Signature: 5BCBDFD164754F7FA3A8BFA31DB52F64F4F6B935
FILE: 01 - Changing The Rain.flac
Size: 32690844 Hash: CAA52A8046ED64CFC6890949BEBB57EC Accuracy: -m0
Conclusion: CDDA 100%
Signature: 3F67101113E7A5F1D2C7241CD3314C7AF1D503F9
Прoдолжительность: 00:53:57

2014 - Luminous /2014 XL Recordings/

Страна-производитель диска: UK & US
Номер по каталогу: XLCD640
Наличие сканов: да
Источник (релизер): HungryFoolish
Трeклист:

01. Chasing Shadows (6:50)
02. First Day Of Spring (5:11)
03. So Now You Know (5:03)
04. In and Out Of Sight (5:04)
05. Jealous Sun (4:10)
06. Falling Star (3:44)
07. I See You (7:33)
08. Change Your Mind (5:08)
09. Mine and Yours (3:32)
10. Sleepwalk (5:26)

Лог создания рипа

X Lossless Decoder version 20140504 (147.0)

XLD extraction logfile from 2014-06-02 19:15:10 +0100

The Horrors / Luminous

Used drive : HL-DT-ST BD-RE BP40NS20 (revision ML01)
Media type : Pressed CD

Ripper mode : XLD Secure Ripper
Disable audio cache : OK for the drive with a cache less than 1375KiB
Make use of C2 pointers : NO
Read offset correction : 667
Max retry count : 20
Gap status : Analyzed, Appended (except HTOA)

TOC of the extracted CD
Track | Start | Length | Start sector | End sector
---------------------------------------------------------
1 | 00:00:00 | 06:49:46 | 0 | 30720
2 | 06:49:46 | 05:11:10 | 30721 | 54055
3 | 12:00:56 | 05:02:59 | 54056 | 76764
4 | 17:03:40 | 05:03:68 | 76765 | 99557
5 | 22:07:33 | 04:10:21 | 99558 | 118328
6 | 26:17:54 | 03:43:51 | 118329 | 135104
7 | 30:01:30 | 07:32:48 | 135105 | 169052
8 | 37:34:03 | 05:07:41 | 169053 | 192118
9 | 42:41:44 | 03:31:38 | 192119 | 207981
10 | 46:13:07 | 05:26:24 | 207982 | 232455

AccurateRip Summary (DiscID: 00141530-009ebac5-800c1b0a)
Track 01 : OK (v2, confidence 3/3)
Track 02 : OK (v2, confidence 3/3)
Track 03 : OK (v2, confidence 3/3)
Track 04 : OK (v2, confidence 3/3)
Track 05 : OK (v2, confidence 3/3)
Track 06 : OK (v2, confidence 3/3)
Track 07 : OK (v2, confidence 3/3)
Track 08 : OK (v2, confidence 3/3)
Track 09 : OK (v2, confidence 3/3)
Track 10 : OK (v2, confidence 3/3)
->All tracks accurately ripped.

All Tracks
Album gain : -9.47 dB
Peak : 0.999969
Statistics
Read error : 0
Jitter error (maybe fixed) : 0
Retry sector count : 0
Damaged sector count : 0

Track 01
Filename : /Users/lmcg/TEMP for ALL/The Horrors - Luminous (2014)/01 - Chasing Shadows.flac
/Users/lmcg/TEMP for ALL/The Horrors - Luminous (2014)/01 - Chasing Shadows.m4a
Pre-gap length : 00:02:00

Track gain : -9.24 dB
Peak : 0.979950
CRC32 hash (test run) : 362F03E8
CRC32 hash : 362F03E8
CRC32 hash (skip zero) : C19F9EF9
AccurateRip v1 signature : C38E2AF5
AccurateRip v2 signature : 752E3D33
->Accurately ripped (v2, confidence 3/3)
Statistics
Read error : 0
Jitter error (maybe fixed) : 0
Retry sector count : 0
Damaged sector count : 0

Track 02
Filename : /Users/lmcg/TEMP for ALL/The Horrors - Luminous (2014)/02 - First Day Of Spring.flac
/Users/lmcg/TEMP for ALL/The Horrors - Luminous (2014)/02 - First Day Of Spring.m4a
Pre-gap length : 00:02:37

Track gain : -9.20 dB
Peak : 0.981232
CRC32 hash (test run) : 75FDD0DF
CRC32 hash : 75FDD0DF
CRC32 hash (skip zero) : 6920C0DA
AccurateRip v1 signature : D7D8F84B
AccurateRip v2 signature : 1347FCB3
->Accurately ripped (v2, confidence 3/3)
Statistics
Read error : 0
Jitter error (maybe fixed) : 0
Retry sector count : 0
Damaged sector count : 0

Track 03
Filename : /Users/lmcg/TEMP for ALL/The Horrors - Luminous (2014)/03 - So Now You Know.flac
/Users/lmcg/TEMP for ALL/The Horrors - Luminous (2014)/03 - So Now You Know.m4a

Track gain : -9.54 dB
Peak : 0.990753
CRC32 hash (test run) : 2BAA0D34
CRC32 hash : 2BAA0D34
CRC32 hash (skip zero) : E9A93823
AccurateRip v1 signature : 5017E8FD
AccurateRip v2 signature : C411482F
->Accurately ripped (v2, confidence 3/3)
Statistics
Read error : 0
Jitter error (maybe fixed) : 0
Retry sector count : 0
Damaged sector count : 0

Track 04
Filename : /Users/lmcg/TEMP for ALL/The Horrors - Luminous (2014)/04 - In and Out Of Sight.flac
/Users/lmcg/TEMP for ALL/The Horrors - Luminous (2014)/04 - In and Out Of Sight.m4a

Track gain : -8.66 dB
Peak : 0.985657
CRC32 hash (test run) : FFDB324B
CRC32 hash : FFDB324B
CRC32 hash (skip zero) : A801FEB5
AccurateRip v1 signature : 3D1E28B8
AccurateRip v2 signature : 36EECCFF
->Accurately ripped (v2, confidence 3/3)
Statistics
Read error : 0
Jitter error (maybe fixed) : 0
Retry sector count : 0
Damaged sector count : 0

Track 05
Filename : /Users/lmcg/TEMP for ALL/The Horrors - Luminous (2014)/05 - Jealous Sun.flac
/Users/lmcg/TEMP for ALL/The Horrors - Luminous (2014)/05 - Jealous Sun.m4a

Track gain : -8.74 dB
Peak : 0.971954
CRC32 hash (test run) : 877FD82F
CRC32 hash : 877FD82F
CRC32 hash (skip zero) : 9578596C
AccurateRip v1 signature : 1E2ACDE6
AccurateRip v2 signature : 5982580F
->Accurately ripped (v2, confidence 3/3)
Statistics
Read error : 0
Jitter error (maybe fixed) : 0
Retry sector count : 0
Damaged sector count : 0

Track 06
Filename : /Users/lmcg/TEMP for ALL/The Horrors - Luminous (2014)/06 - Falling Star.flac
/Users/lmcg/TEMP for ALL/The Horrors - Luminous (2014)/06 - Falling Star.m4a

Track gain : -9.94 dB
Peak : 0.998413
CRC32 hash (test run) : 43EEE63E
CRC32 hash : 43EEE63E
CRC32 hash (skip zero) : C88A44CE
AccurateRip v1 signature : B3E4FD44
AccurateRip v2 signature : BB816BD9
->Accurately ripped (v2, confidence 3/3)
Statistics
Read error : 0
Jitter error (maybe fixed) : 0
Retry sector count : 0
Damaged sector count : 0

Track 07
Filename : /Users/lmcg/TEMP for ALL/The Horrors - Luminous (2014)/07 - I See You.flac
/Users/lmcg/TEMP for ALL/The Horrors - Luminous (2014)/07 - I See You.m4a

Track gain : -9.16 dB
Peak : 0.985352
CRC32 hash (test run) : 9143680E
CRC32 hash : 9143680E
CRC32 hash (skip zero) : 7B3B35D2
AccurateRip v1 signature : 7EBD1F10
AccurateRip v2 signature : F3A542F2
->Accurately ripped (v2, confidence 3/3)
Statistics
Read error : 0
Jitter error (maybe fixed) : 0
Retry sector count : 0
Damaged sector count : 0

Track 08
Filename : /Users/lmcg/TEMP for ALL/The Horrors - Luminous (2014)/08 - Change Your Mind.flac
/Users/lmcg/TEMP for ALL/The Horrors - Luminous (2014)/08 - Change Your Mind.m4a
Pre-gap length : 00:01:16

Track gain : -9.56 dB
Peak : 0.984924
CRC32 hash (test run) : 25323974
CRC32 hash : 25323974
CRC32 hash (skip zero) : E137E571
AccurateRip v1 signature : 9AE1D439
AccurateRip v2 signature : 6115E28B
->Accurately ripped (v2, confidence 3/3)
Statistics
Read error : 0
Jitter error (maybe fixed) : 0
Retry sector count : 0
Damaged sector count : 0

Track 09
Filename : /Users/lmcg/TEMP for ALL/The Horrors - Luminous (2014)/09 - Mine and Yours.flac
/Users/lmcg/TEMP for ALL/The Horrors - Luminous (2014)/09 - Mine and Yours.m4a

Track gain : -10.33 dB
Peak : 0.991058
CRC32 hash (test run) : 2E9AEB4B
CRC32 hash : 2E9AEB4B
CRC32 hash (skip zero) : 77379C34
AccurateRip v1 signature : 6B75A1A1
AccurateRip v2 signature : CB3D0DD6
->Accurately ripped (v2, confidence 3/3)
Statistics
Read error : 0
Jitter error (maybe fixed) : 0
Retry sector count : 0
Damaged sector count : 0

Track 10
Filename : /Users/lmcg/TEMP for ALL/The Horrors - Luminous (2014)/10 - Sleepwalk.flac
/Users/lmcg/TEMP for ALL/The Horrors - Luminous (2014)/10 - Sleepwalk.m4a

Track gain : -9.30 dB
Peak : 0.999969
CRC32 hash (test run) : 4FDB0FE0
CRC32 hash : 4FDB0FE0
CRC32 hash (skip zero) : 3590B96C
AccurateRip v1 signature : 5620D2AC
AccurateRip v2 signature : A6BCE46B
->Accurately ripped (v2, confidence 3/3)
Statistics
Read error : 0
Jitter error (maybe fixed) : 0
Retry sector count : 0
Damaged sector count : 0

No errors occurred

End of status report

-----BEGIN XLD SIGNATURE-----
OjNG2zAZqz_QPtyvi0FgAuWnVEPp7YDJ7tPSHldka6H2t9miD3RD.x1FtQVSYtQ0PbK2MJThZiTnzwFOn2lMxuz7T1t.a0WuMV2G_V0
-----END XLD SIGNATURE-----

Содержание индексной карты (.CUE)

TITLE "Luminous"
PERFORMER "The Horrors"
REM GENRE "Indie"
REM DATE "2014"
REM DISCNUMBER 1
REM TOTALDISCS 1
REM DISCID 800C1B0A
REM REPLAYGAIN_ALBUM_GAIN -9.47 dB
REM REPLAYGAIN_ALBUM_PEAK 0.999969
FILE "01 - Chasing Shadows.flac" WAVE
TRACK 01 AUDIO
TITLE "Chasing Shadows"
PERFORMER "The Horrors"
ISRC GBBKS1400036
REM REPLAYGAIN_TRACK_GAIN -9.24 dB
REM REPLAYGAIN_TRACK_PEAK 0.979950
INDEX 01 00:00:00
TRACK 02 AUDIO
TITLE "First Day Of Spring"
PERFORMER "The Horrors"
ISRC GBBKS1400037
REM REPLAYGAIN_TRACK_GAIN -9.20 dB
REM REPLAYGAIN_TRACK_PEAK 0.981232
INDEX 00 06:47:09
FILE "02 - First Day Of Spring.flac" WAVE
INDEX 01 00:00:00
FILE "03 - So Now You Know.flac" WAVE
TRACK 03 AUDIO
TITLE "So Now You Know"
PERFORMER "The Horrors"
ISRC GBBKS1400038
REM REPLAYGAIN_TRACK_GAIN -9.54 dB
REM REPLAYGAIN_TRACK_PEAK 0.990753
INDEX 01 00:00:00
FILE "04 - In and Out Of Sight.flac" WAVE
TRACK 04 AUDIO
TITLE "In and Out Of Sight"
PERFORMER "The Horrors"
ISRC GBBKS1400039
REM REPLAYGAIN_TRACK_GAIN -8.66 dB
REM REPLAYGAIN_TRACK_PEAK 0.985657
INDEX 01 00:00:00
FILE "05 - Jealous Sun.flac" WAVE
TRACK 05 AUDIO
TITLE "Jealous Sun"
PERFORMER "The Horrors"
ISRC GBBKS1400040
REM REPLAYGAIN_TRACK_GAIN -8.74 dB
REM REPLAYGAIN_TRACK_PEAK 0.971954
INDEX 01 00:00:00
FILE "06 - Falling Star.flac" WAVE
TRACK 06 AUDIO
TITLE "Falling Star"
PERFORMER "The Horrors"
ISRC GBBKS1400041
REM REPLAYGAIN_TRACK_GAIN -9.94 dB
REM REPLAYGAIN_TRACK_PEAK 0.998413
INDEX 01 00:00:00
FILE "07 - I See You.flac" WAVE
TRACK 07 AUDIO
TITLE "I See You"
PERFORMER "The Horrors"
ISRC GBBKS1400042
REM REPLAYGAIN_TRACK_GAIN -9.16 dB
REM REPLAYGAIN_TRACK_PEAK 0.985352
INDEX 01 00:00:00
TRACK 08 AUDIO
TITLE "Change Your Mind"
PERFORMER "The Horrors"
ISRC GBBKS1400043
REM REPLAYGAIN_TRACK_GAIN -9.56 dB
REM REPLAYGAIN_TRACK_PEAK 0.984924
INDEX 00 07:31:32
FILE "08 - Change Your Mind.flac" WAVE
INDEX 01 00:00:00
FILE "09 - Mine and Yours.flac" WAVE
TRACK 09 AUDIO
TITLE "Mine and Yours"
PERFORMER "The Horrors"
ISRC GBBKS1400044
REM REPLAYGAIN_TRACK_GAIN -10.33 dB
REM REPLAYGAIN_TRACK_PEAK 0.991058
INDEX 01 00:00:00
FILE "10 - Sleepwalk.flac" WAVE
TRACK 10 AUDIO
TITLE "Sleepwalk"
PERFORMER "The Horrors"
ISRC GBBKS1400045
REM REPLAYGAIN_TRACK_GAIN -9.30 dB
REM REPLAYGAIN_TRACK_PEAK 0.999969
INDEX 01 00:00:00

Лог проверки качества

-----------------------

DON'T MODIFY THIS FILE

-----------------------

PERFORMER: auCDtect Task Manager, ver. 1.6.0 RC1 build 1.6.0.1
Copyright (c) 2008-2010 y-soft. All rights reserved
http://y-soft.org

ANALYZER: auCDtect: CD records authenticity detector, version 0.8.2
Copyright (c) 2004 Oleg Berngardt. All rights reserved.
Copyright (c) 2004 Alexander Djourik. All rights reserved.

FILE: 10 - Sleepwalk.flac
Size: 42168397 Hash: CA614A2D18D20263136C9221254E4E36 Accuracy: -m0
Conclusion: CDDA 100%
Signature: 63096F3C7CD4A789C310C98553F8239038D970D5
FILE: 09 - Mine and Yours.flac
Size: 26591691 Hash: 16FDEAD7A089CDD10726BDF437453AA0 Accuracy: -m0
Conclusion: CDDA 100%
Signature: 758B8531F0EF17537BF711A0F2D0C21D1A37AD0C
FILE: 08 - Change Your Mind.flac
Size: 36038358 Hash: 5F627A43D87179A4964CC3D8F5ED47AC Accuracy: -m0
Conclusion: CDDA 100%
Signature: BBF601D139644E5C2EAF36030379D58C823EAAB7
FILE: 07 - I See You.flac
Size: 57813271 Hash: 1E9C2441730E4969FA98329A069A0D57 Accuracy: -m0
Conclusion: CDDA 100%
Signature: D13624FB6F5D7A78F61FCAA4F182C114EFB1E796
FILE: 06 - Falling Star.flac
Size: 28578733 Hash: A64386601BE312807C2C78A45B0B128E Accuracy: -m0
Conclusion: CDDA 100%
Signature: CEDE3862A2C966054B6BF7062946A52326A3559B
FILE: 05 - Jealous Sun.flac
Size: 30533669 Hash: DFF90A7030D76240EC3C240F0FD7367F Accuracy: -m0
Conclusion: CDDA 100%
Signature: 5C87DE773E18BD6AA3E13D28E9DE7B221A9CE5CD
FILE: 04 - In and Out Of Sight.flac
Size: 36872239 Hash: 4B01F62CEB9ED5980DF341BC6949EE94 Accuracy: -m0
Conclusion: CDDA 100%
Signature: 9F7262AB218137FBD065FB7708391A6BA169221B
FILE: 03 - So Now You Know.flac
Size: 36267367 Hash: EBAA57159020296CC34AA2F1BCA8F2B4 Accuracy: -m0
Conclusion: CDDA 100%
Signature: 7C9D1F54D3D83EDBA1E6F4AE82B24FFF3F8C4F19
FILE: 02 - First Day Of Spring.flac
Size: 38528352 Hash: EF786550A0B9D24008AA5AB1A7D6C5B7 Accuracy: -m0
Conclusion: CDDA 100%
Signature: 2476A6A5170B6B21C39C6192F3EB8B6F573D9F2D
FILE: 01 - Chasing Shadows.flac
Size: 44040529 Hash: 5B89B8F6A598727F4F9CA2040E1C778B Accuracy: -m0
Conclusion: CDDA 100%
Signature: 0D7131F2DE617C6D6D7FC37838C6CD08CEB5DAF4
Прoдолжительность: 00:51:39

2017 - V /2017 Wolf Tone/

Страна-производитель диска: US
Номер по каталогу: 2557719390
Наличие сканов: да
Источник (релизер): felix1429
Трeклист:

01. Hologram (6:05)
02. Press Enter to Exit (5:55)
03. Machine (5:17)
04. Ghost (5:37)
05. Point of No Reply (5:00)
06. Weighed Down (6:32)
07. Gathering (5:16)
08. World Below (3:20)
09. It's a Good Life (4:53)
10. Something to Remember Me By (6:40)

Лог создания рипа

Exact Audio Copy V1.3 from 2. September 2016

EAC extraction logfile from 4. October 2017, 17:22

The Horrors / V

Used drive : TSSTcorpCDDVDW SE-218GN Adapter: 1 ID: 0

Read mode : Secure
Utilize accurate stream : Yes
Defeat audio cache : Yes
Make use of C2 pointers : No

Read offset correction : 6
Overread into Lead-In and Lead-Out : No
Fill up missing offset samples with silence : Yes
Delete leading and trailing silent blocks : No
Null samples used in CRC calculations : Yes
Used interface : Native Win32 interface for Win NT & 2000
Gap handling : Appended to previous track

Used output format : User Defined Encoder
Selected bitrate : 1024 kBit/s
Quality : High
Add ID3 tag : No
Command line compressor : C:\Program Files (x86)\Exact Audio Copy\Flac\flac.exe
Additional command line options : -8 -V -T "ARTIST=%artist%" -T "TITLE=%title%" -T "ALBUM=%albumtitle%" -T "DATE=%year%" -T "TRACKNUMBER=%tracknr%" -T "GENRE=%genre%" -T "PERFORMER=%albuminterpret%" -T "COMPOSER=%composer%" %haslyrics%--tag-from-file=LYRICS="%lyricsfile%"%haslyrics% -T "ALBUMARTIST=%albumartist%" -T "DISCNUMBER=%cdnumber%" -T "TOTALDISCS=%totalcds%" -T "TOTALTRACKS=%numtracks%" -T "COMMENT=%comment%" %source% -o %dest%

TOC of the extracted CD

Track | Start | Length | Start sector | End sector
---------------------------------------------------------
1 | 0:00.00 | 6:04.48 | 0 | 27347
2 | 6:04.48 | 5:55.13 | 27348 | 53985
3 | 11:59.61 | 5:16.73 | 53986 | 77758
4 | 17:16.59 | 5:37.37 | 77759 | 103070
5 | 22:54.21 | 4:59.49 | 103071 | 125544
6 | 27:53.70 | 6:31.62 | 125545 | 154931
7 | 34:25.57 | 5:16.37 | 154932 | 178668
8 | 39:42.19 | 3:20.04 | 178669 | 193672
9 | 43:02.23 | 4:52.39 | 193673 | 215611
10 | 47:54.62 | 6:40.06 | 215612 | 245617

Track 1

Filename H:\Torrents\Media\The Horrors - V (FLAC)\01 - Hologram.wav

Pre-gap length 0:00:02.00

Peak level 100.0 %
Extraction speed 3.1 X
Track quality 100.0 %
Test CRC 6B12E968
Copy CRC 6B12E968
Track not present in AccurateRip database
Copy OK

Track 2

Filename H:\Torrents\Media\The Horrors - V (FLAC)\02 - Press Enter To Exit.wav

Peak level 100.0 %
Extraction speed 3.5 X
Track quality 100.0 %
Test CRC A6168182
Copy CRC A6168182
Track not present in AccurateRip database
Copy OK

Track 3

Filename H:\Torrents\Media\The Horrors - V (FLAC)\03 - Machine.wav

Peak level 100.0 %
Extraction speed 3.8 X
Track quality 100.0 %
Test CRC D8051F55
Copy CRC D8051F55
Track not present in AccurateRip database
Copy OK

Track 4

Filename H:\Torrents\Media\The Horrors - V (FLAC)\04 - Ghost.wav

Peak level 100.0 %
Extraction speed 4.1 X
Track quality 100.0 %
Test CRC 40C6D5D7
Copy CRC 40C6D5D7
Track not present in AccurateRip database
Copy OK

Track 5

Filename H:\Torrents\Media\The Horrors - V (FLAC)\05 - Point of No Reply.wav

Peak level 100.0 %
Extraction speed 4.3 X
Track quality 100.0 %
Test CRC F58EC37A
Copy CRC F58EC37A
Track not present in AccurateRip database
Copy OK

Track 6

Filename H:\Torrents\Media\The Horrors - V (FLAC)\06 - Weighed Down.wav

Peak level 100.0 %
Extraction speed 4.7 X
Track quality 100.0 %
Test CRC DC4C8790
Copy CRC DC4C8790
Track not present in AccurateRip database
Copy OK

Track 7

Filename H:\Torrents\Media\The Horrors - V (FLAC)\07 - Gathering.wav

Peak level 100.0 %
Extraction speed 4.8 X
Track quality 100.0 %
Test CRC 32696055
Copy CRC 32696055
Track not present in AccurateRip database
Copy OK

Track 8

Filename H:\Torrents\Media\The Horrors - V (FLAC)\08 - World Below.wav

Peak level 100.0 %
Extraction speed 4.7 X
Track quality 100.0 %
Test CRC E3066070
Copy CRC E3066070
Track not present in AccurateRip database
Copy OK

Track 9

Filename H:\Torrents\Media\The Horrors - V (FLAC)\09 - It's a Good Life.wav

Peak level 100.0 %
Extraction speed 4.1 X
Track quality 99.9 %
Test CRC DE0A4248
Copy CRC DE0A4248
Track not present in AccurateRip database
Copy OK

None of the tracks are present in the AccurateRip database

No errors occurred

End of status report

==== Log checksum 8F9B96BB03FF99973BDBE894E8C7EFA9B6F06D91B1394AD6684B2C7FBAFEBE4C ====

------------------------------------------------------------

Exact Audio Copy V1.3 from 2. September 2016

EAC extraction logfile from 4. October 2017, 17:29

The Horrors / V

Used drive : TSSTcorpCDDVDW SE-218GN Adapter: 1 ID: 0

Read mode : Secure
Utilize accurate stream : Yes
Defeat audio cache : Yes
Make use of C2 pointers : No

Read offset correction : 6
Overread into Lead-In and Lead-Out : No
Fill up missing offset samples with silence : Yes
Delete leading and trailing silent blocks : No
Null samples used in CRC calculations : Yes
Used interface : Native Win32 interface for Win NT & 2000
Gap handling : Appended to previous track

Used output format : User Defined Encoder
Selected bitrate : 1024 kBit/s
Quality : High
Add ID3 tag : No
Command line compressor : C:\Program Files (x86)\Exact Audio Copy\Flac\flac.exe
Additional command line options : -8 -V -T "ARTIST=%artist%" -T "TITLE=%title%" -T "ALBUM=%albumtitle%" -T "DATE=%year%" -T "TRACKNUMBER=%tracknr%" -T "GENRE=%genre%" -T "PERFORMER=%albuminterpret%" -T "COMPOSER=%composer%" %haslyrics%--tag-from-file=LYRICS="%lyricsfile%"%haslyrics% -T "ALBUMARTIST=%albumartist%" -T "DISCNUMBER=%cdnumber%" -T "TOTALDISCS=%totalcds%" -T "TOTALTRACKS=%numtracks%" -T "COMMENT=%comment%" %source% -o %dest%

TOC of the extracted CD

Track | Start | Length | Start sector | End sector
---------------------------------------------------------
1 | 0:00.00 | 6:04.48 | 0 | 27347
2 | 6:04.48 | 5:55.13 | 27348 | 53985
3 | 11:59.61 | 5:16.73 | 53986 | 77758
4 | 17:16.59 | 5:37.37 | 77759 | 103070
5 | 22:54.21 | 4:59.49 | 103071 | 125544
6 | 27:53.70 | 6:31.62 | 125545 | 154931
7 | 34:25.57 | 5:16.37 | 154932 | 178668
8 | 39:42.19 | 3:20.04 | 178669 | 193672
9 | 43:02.23 | 4:52.39 | 193673 | 215611
10 | 47:54.62 | 6:40.06 | 215612 | 245617

Track 10

Filename H:\Torrents\Media\The Horrors - V (FLAC)\10 - Something To Remember Me By.wav

Peak level 100.0 %
Extraction speed 4.6 X
Track quality 99.9 %
Test CRC 07C893BF
Copy CRC 07C893BF
Track not present in AccurateRip database
Copy OK

None of the tracks are present in the AccurateRip database

No errors occurred

End of status report

==== Log checksum FFE5C9FF6225B4697E918E867BA076827B3C76CB23ABA6990E6CB7FEE5DFFF2B ====

Содержание индексной карты (.CUE)

REM DATE 2017
REM DISCID 950CCA0A
REM COMMENT "ExactAudioCopy v1.3"
PERFORMER "The Horrors"
TITLE "V"
FILE "01 Hologram.wav" WAVE
TRACK 01 AUDIO
TITLE "Hologram"
PERFORMER "The Horrors"
FLAGS DCP
INDEX 01 00:00:00
FILE "02 Press Enter To Exit.wav" WAVE
TRACK 02 AUDIO
TITLE "Press Enter To Exit"
PERFORMER "The Horrors"
FLAGS DCP
INDEX 01 00:00:00
FILE "03 Machine.wav" WAVE
TRACK 03 AUDIO
TITLE "Machine"
PERFORMER "The Horrors"
FLAGS DCP
INDEX 01 00:00:00
FILE "04 Ghost.wav" WAVE
TRACK 04 AUDIO
TITLE "Ghost"
PERFORMER "The Horrors"
FLAGS DCP
INDEX 01 00:00:00
FILE "05 Point of No Reply.wav" WAVE
TRACK 05 AUDIO
TITLE "Point of No Reply"
PERFORMER "The Horrors"
FLAGS DCP
INDEX 01 00:00:00
FILE "06 Weighed Down.wav" WAVE
TRACK 06 AUDIO
TITLE "Weighed Down"
PERFORMER "The Horrors"
FLAGS DCP
INDEX 01 00:00:00
FILE "07 Gathering.wav" WAVE
TRACK 07 AUDIO
TITLE "Gathering"
PERFORMER "The Horrors"
FLAGS DCP
INDEX 01 00:00:00
FILE "08 World Below.wav" WAVE
TRACK 08 AUDIO
TITLE "World Below"
PERFORMER "The Horrors"
FLAGS DCP
INDEX 01 00:00:00
FILE "09 It's a Good Life.wav" WAVE
TRACK 09 AUDIO
TITLE "It's a Good Life"
PERFORMER "The Horrors"
FLAGS DCP
INDEX 01 00:00:00
FILE "10 Something To Remember Me By.wav" WAVE
TRACK 10 AUDIO
TITLE "Something To Remember Me By"
PERFORMER "The Horrors"
FLAGS DCP
INDEX 01 00:00:00

Лог проверки качества

-----------------------

DON'T MODIFY THIS FILE

-----------------------

PERFORMER: auCDtect Task Manager, ver. 1.6.0 RC1 build 1.6.0.1
Copyright (c) 2008-2010 y-soft. All rights reserved
http://y-soft.org

ANALYZER: auCDtect: CD records authenticity detector, version 0.8.2
Copyright (c) 2004 Oleg Berngardt. All rights reserved.
Copyright (c) 2004 Alexander Djourik. All rights reserved.

FILE: 10 Something to Remember Me By.flac
Size: 49825763 Hash: 8623FFDB91E938E7989BC4BB39640316 Accuracy: -m0
Conclusion: CDDA 100%
Signature: 036B76CEFB44269BA0D239D30183447E21F6EBFE
FILE: 09 It's a Good Life.flac
Size: 32113512 Hash: 042646E4B2DC3E2B938317742ADAC13B Accuracy: -m0
Conclusion: CDDA 100%
Signature: B690C4834A070ADD116713CEF1AA812DC26232F7
FILE: 08 World Below.flac
Size: 27773206 Hash: D95F84F8709EE8782888A17579FBC76C Accuracy: -m0
Conclusion: CDDA 100%
Signature: E7AF533B243C45FB74A77C4E296B1A324A18EA94
FILE: 07 Gathering.flac
Size: 38366275 Hash: 226AB089C05E9A7096CAB61F6B15C50B Accuracy: -m0
Conclusion: CDDA 100%
Signature: F042880FCF105A22C82B4FA6EBB1059BF82AA2BA
FILE: 06 Weighed Down.flac
Size: 45841204 Hash: F0C79F653F88BEC0FBAFBA3D5348AE25 Accuracy: -m0
Conclusion: CDDA 100%
Signature: 3840A3DA5C094424313F33BF791BB40C1E8CB567
FILE: 05 Point of No Reply.flac
Size: 33027448 Hash: ECD274A116FEA87453EC83A79E6AE4A7 Accuracy: -m0
Conclusion: CDDA 99%
Signature: 13022D72125D0D2B109719EF7F649F753E1A1907
FILE: 04 Ghost.flac
Size: 38426465 Hash: A455F86C47E0DAE82D13CC38E1E5AEE4 Accuracy: -m0
Conclusion: CDDA 100%
Signature: 7F630447F00F55D58197284D1E17D3B8899DDC5D
FILE: 03 Machine.flac
Size: 39892125 Hash: F6FA7C01E4DFF46B72BBFBD873B6C5A0 Accuracy: -m0
Conclusion: CDDA 100%
Signature: BA9CD951EFFC4B5608B71002BCE1371B9071D039
FILE: 02 Press Enter to Exit.flac
Size: 43675176 Hash: AC27C7A5B85D30AD78B949C87B68B75A Accuracy: -m0
Conclusion: CDDA 100%
Signature: A52C338F8F0C7E71E75DFA45EAA2836853BB07F8
FILE: 01 Hologram.flac
Size: 44249704 Hash: 476ED6E3094C27DCED557A52D9A42CFD Accuracy: -m0
Conclusion: CDDA 99%
Signature: 2FEF3ACA581DBD24F463ABB21255212433EEEECE
Прoдолжительность: 00:54:35

О группе

YouTubeYouTubeYouTubeYouTubeYouTubeYouTubeYouTubeYouTubeYouTubeYouTubeYouTubeYouTubeYouTubeYouTubeYouTubeYouTube


Состав группы:
Faris Badwan – lead vocals
Tom Cowan – synthesizer, bass
Joshua Hayward – guitar, piano
Joe Spurgeon – drums and percussion, backing vocals
Rhys Webb – bass, organ, backing vocals
Live members
Freddie Cowan – guitar (2005)

Альбомы
Strange House (5 марта 2007)
Primary Colours (4 мая 2009)
Skying (11 июля 2011)
Luminous (5 мая 2014)
V - 2017

EPs
The Horrors EP (24 октября 2006)

Редкие виниловые пластинки, интересующие настоящих гурманов, и ди-джейские вечеринки в лондонском клубе «Junk» - вот что, помимо желания самим поучаствовать в музыкальной жизни Великобритании, объединило будущих коллег по Horrors - пятерых британских парней от 18 до 22 лет от роду. Двоих из них, наполовину палестинца Фэриса Бэдуона (Faris Badwan) и Томети Кауэна (Tomethy Cowan), объединяло еще одно обстоятельство - оба учились в закрытой частной школе. Для Фэриса (он родился 21 сентября 1986 года) The Horrors не были первой «пробой пера». Свой славный путь в шоу-бизнесе он начинал с панк-группы The Rotters, в которой решительно сел за барабаны, хотя не имел ни малейшего понятия о том, что делать с палочками и как удерживать ритм. Остальные участники The Rotters оказались не намного опытнее него, так что, успев каким-то чудом выпустить одни сингл, группа самораспустилась. После школы Фэрис отправился в Лондон и продолжил образование в Центральном колледже живописи и дизайна - рисовать (и сочинять разные истории) он любил с детства. Учебу однако он вскоре забросил и целиком сосредоточился на музыке.
Однокашник Фэриса Том Кауэн (родился 11 марта 1987 года) тоже решил было попробовать себя в изобразительном искусстве и поступил на факультет графического дизайна. Не найдя там ничего для себя интересного и обозвав образование «пустой тратой времени», он вскоре завязал с этим занятием и без раздумий присоединился к Фэрису Бэдуону, когда тот предложил ему создать свою рок-команду.
Третьим участником группы стал Рис Уэбб (Rhys Webb), 22-летний клавишник, по счастливой случайности - один из основателей клуба «Junk», расположенного в подвале живописно разваливающегося отеля в викторианском стиле. Именно здесь свежеиспеченный проект получил первое пристанище и первую концертную площадку, здесь же нашлись еще два музыканта - Джозеф Сперджен (Joseph Spurgeon), «дитя природы» - как называют его коллеги, выросший в тихой английской провинции, и Джошуа Хэйворд (Joshua Hayward), который закончил Университетский колледж в Лондоне, где специализировался на физике, и успел поиграть в группах Xerox и Von Grimm.
Окончательное и бесповоротное сплочение коллектива произошло летом 2005 года. Роли в этой пьесе ужасов распределились следующим образом. Фэрис Бэдвон, известный также как Фэрис Роттер, числился лид-вокалистом. Джошуа Хэйворд, взявший псевдоним Джошуа Третий (Joshua Third), отвечал за гитару. Бас-гитаристом стал Том Кауэн, превратившийся в Тома Ферса (Tom Furse). Рис Уэбб, ака Паук (Спайдер) Уэбб (Spider Webb), отвечал за клавиши и орган. Джозефу Сперджену, который предпочитал теперь называться Коффином Джо (Сoffin Joe), доверили барабаны.
Пробовать свои силы The Horrors начали, как и положено, с каверов. Одними из первых их жертв стали The Sonics и их трек «The Witch» и легенда британского рока 60-х Screaming Lord Sutch и его непритязательно-агрессивная песенка «Jack the Ripper» («Джек-потрошитель»). Screaming Lord Sutch, один из родоначальников музыки в жанре «horror», станет для молодых музыкантов заочным гуру, образцом для подражания и, что тоже немаловажно, источником материала для переосмысления. В частности, знаковой песней «Jack the Ripper» будет открываться дебютный альбом The Horrors.
В истории британского рока были и другие персонажи, чье творчество приковало к себе внимание «хоррорцев». Один из них - Джо Мик (Joe Meek), эксцентричный продюсер и музыкант, обожавший экспериментировать с инструментами и придумывать новые звуки. В свое время он аранжировал и продюсировал первые синглы Screaming Lord Sutch, а через 40 лет вдохновил участников The Horrors на эксперименты с клавишами и синтезаторами. Если оглашать весь список артистов и групп, чье влияние можно (при желании) расслышать в музыке команды, то в него нужно добавить The Birthday Party и The Cramps, а также имя Эдварда Гори (Edward Gorey).
The Horrors не просто играли дикий гараж-рок, впадающий то в панковское веселое безрассудство, то в наигранно мрачную готику, они абсолютно вжились в придуманный образ: взвалили на свои субтильные плечи бремя мировой скорби, облачились в траур неизвестно по ком, вздыбили волосы и обвели глаза черным. Продолжением забавной игры стали и их живые концерты, слух о которых быстро прокатился по Лондону и окрестностям: они наносили по психике и ушам доверчивых зрителей молниеносные энергетические удары, ставя зал на дыбы и электризуя атмосферу до предела.
В начале 2006 года The Horrors уже были счастливыми обладателями рекордингового контракта и вскоре выпустили дебютный сингл «Sheena Is a Parasite», включавший также композицию «Jack the Ripper». К лету страсти вокруг команды накалились еще больше - когда они начали ди-джеить в клубе «Troubled Minds», от поклонников не было отбоя. Второй сингл «Death at the Chappel» только подлил масла в огонь. Не устоял перед всеобщим психозом и режиссер Kрис Каннингэм (Chris Cunningham), который прервал ради The Horrors свой долгосрочный мораторий на работу с музыкальными видео и снял впечатляющий ролик на дебютный сингл «Sheena Is a Parasite», в котором главную роль сыграла Саманта Мортон (Samantha Morton). По словам Каннингэма, он не мог отказать музыкантам, потому что песня просто свела его с ума.
Главными событиями осени 2006 года стали подписание контракта с американским рекорд-лейблом Stolen Transmission и выход в Европе и Америке дебютного мини-альбома «The Horrors». Еще один сингл «Count in Fives» был издан в Великобритании.
Наконец, весной 2007 состоялся международный релиз дебютного лонг-плея «Strange House». Открывая альбом зловещей историей «Джека-потрошителя», музыканты нафаршировали его еще десятком франкенштейновских сюжетов, разыгранных с помощью шизоидного вокала, колючих, грязных, нервно повизгивающих гитар, нестройных клавишных и вконец расхлябанных ударных. Эта смесь страшной сказки и параноидальных панковских прибамбасов звучала по-своему обаятельно, во всяком случае у альбома нашлось достаточно ценителей, чтобы он отметился в британском Тор 40.
Одной Англией и даже Европой концертная поддержка дебюта не ограничилась. На пути к мировому господству The Horrors 2007 года проехали по Соединенным Штатам летом и осчастливили своими экспрессивными шоу гостей многочисленных фестивалей, побывав в Гластонбери, Карлинге, на нескольких фестивальных мероприятиях в Скандинавии, Японии и Австралии.
Детали торрента:
Название:The Horrors - 5 альбомов, 1 EP (2006 - 2017) [FLAC|Lossless|tracks + .cue]<Indie, Psychedelic, Post-Punk>
Дата добавления:19 Окт 2017 19:40:33
Размер:1,89 GB
Раздают:
Качают:1
Форум:Alternative, Punk (Lossless)

All rights reserved © 2015-2018