TORRENTS43.COM

Скачать Виртуальное путешествие: Гавайи / Virtual Trip: Hawaii (2008) BDRip [1080p]


Виртуальное путешествие: Гавайи / Virtual Trip: Hawaii (2008) BDRip [1080p]
Русское название: Виртуальное путешествие: Гавайи
Оригинальное название: Virtual Trip: Hawaii
Режиссер / Телекомпания: Юки Ватанабэ / Yuki Watanabe
Год выпуска: 2008
Жанр: Видовой, Документальный

Описание:
Гавайи – это удивительные экзотические острова. Поездка на них – настоящая находка для путешественников, которые желают получить массу впечатлений. Благоприятный климат практически круглый год, высокий уровень обслуживания, океан, великолепные песчаные пляжи, разнообразный ландшафт, тропическая растительность – все можно найти именно здесь. Пассивный пляжный отдых можно совместить с активным: виндсерфинг, дайвинг, подводная охота и рыбалка.

Продолжительность: 00:59:37

Перевод: Не требуется (нет диалогов и комментариев)

Видеокодек: MPEG-4 AVC/H.264
Битрейт видео: ~10.8 Mbps
Размер кадра: 1920x1080
Качество видео: BDRip
Аудиокодек: AC3 5.1
Битрейт аудио: 640 Kbps

Субтитры: Английские (географические названия)




MediaInfo

Общее
Формат : Matroska
Версия формата : Version 2
Размер файла : 4,85 Гбайт
Продолжительность : 59 м.
Общий поток : 11,6 Мбит/сек

Видео
Идентификатор : 1
Формат : AVC
Формат/Информация : Advanced Video Codec
Профиль формата : High@L4.1
Параметр CABAC формата : Да
Параметр ReFrames формата : 3 кадра
Идентификатор кодека : V_MPEG4/ISO/AVC
Продолжительность : 59 м.
Битрейт : 11,0 Мбит/сек
Ширина : 1920 пикс.
Высота : 1080 пикс.
Соотношение сторон : 16:9
Частота кадров : 23,976 кадр/сек
Цветовое пространство : YUV
Подвыборка цветности : 4:2:0
Битовая глубина : 8 бит
Тип развёртки : Прогрессивная
Бит/(Пиксели*Кадры) : 0.221
Размер потока : 4,48 Гбайт (93%)
Заголовок : Virtual Trip Hawaii
Язык : English

Аудио
Идентификатор : 2
Формат : AC-3
Формат/Информация : Audio Coding 3
Расширение режима : CM (complete main)
Идентификатор кодека : A_AC3
Продолжительность : 59 м.
Вид битрейта : Постоянный
Битрейт : 640 Кбит/сек
Каналы : 6 каналов
Расположение каналов : Front: L C R, Side: L R, LFE
Частота : 48,0 КГц
Битовая глубина : 16 бит
Метод сжатия : С потерями
Размер потока : 273 Мбайт (6%)
Заголовок : Music
Язык : English

Текст
Идентификатор : 3
Формат : UTF-8
Идентификатор кодека : S_TEXT/UTF8
Идентификатор кодека/Информация : UTF-8 Plain Text
Заголовок : English
Язык : English

Меню
00:00:00.000 : en:00:00:00.000
00:04:32.606 : en:00:04:32.606
00:08:38.309 : en:00:08:38.309
00:14:28.701 : en:00:14:28.701
00:20:26.016 : en:00:20:26.016
00:23:29.658 : en:00:23:29.658
00:27:04.081 : en:00:27:04.081
00:31:57.624 : en:00:31:57.624
00:37:13.982 : en:00:37:13.982
00:44:45.933 : en:00:44:45.933
00:51:33.090 : en:00:51:33.090
00:53:40.926 : en:00:53:40.926

Смотреть Online

http://moonwalk.cc/serial/20a95d804a9c7909a31b38f1249eed46/iframe
Детали торрента:
Название:Виртуальное путешествие: Гавайи / Virtual Trip: Hawaii (2008) BDRip [1080p]
Дата добавления:19 Авг 2011 19:00:48
Размер:4,85 GB
Раздают:
Качают:0
Форум:Релакс / Relax

All rights reserved © 2015-2018