TORRENTS43.COM

Скачать Восхождение (1976) DVDRip


Восхождение (1976) DVDRip
Русское название: Восхождение
Год выпуска: 1976
Производство: СССР
Жанр: Драма, Военный
Субтитры: Вшитые неотключаемые
Язык субтитров: Английские


Дата мировой премьеры: 2 апреля 1977

Режиссер: Лариса Шепитько
Актеры: Борис Плотников, Владимир Гостюхин, Сергей Яковлев, Людмила Полякова, Виктория Гольдентул, Анатолий Солоницын, Мария Виноградова, Николай Сектименко, Сергей Канищев, Владимир Лаптев

Описание фильма:
По мотивам повести В. Быкова «Сотников». О судьбе двух партизан, попавших в плен к фашистам, о мужестве и трусости, о достоинстве и неодолимой силе духа.

Продолжительность: 00:43:50+01:00:47
Качество видео: DVDRip

Видеокодек: Xvid
Битрейт видео: ~1 778 Kbps
Размер кадра: 720x528
Аудиокодек: AC3 2.0
Битрейт аудио: ~448 kbps

MediaInfo

General
Complete name : E:\торрент\Voshozdenie._[torrents43.com]\vosxozhdenie.chast1.1976.avi
Format : AVI
Format/Info : Audio Video Interleave
File size : 701 MiB
Duration : 43mn 50s
Overall bit rate : 2 236 Kbps
Writing application : VirtualDubMod 1.5.10.2 (build 2540/release)
Writing library : VirtualDubMod build 2540/release

Video
ID : 0
Format : MPEG-4 Visual
Format profile : Advanced Simple@L5
Format settings, BVOP : Yes
Format settings, QPel : No
Format settings, GMC : No warppoints
Format settings, Matrix : Default (H.263)
Codec ID : XVID
Codec ID/Hint : XviD
Duration : 43mn 50s
Bit rate : 1 778 Kbps
Width : 720 pixels
Height : 528 pixels
Display aspect ratio : 4:3
Frame rate : 25.000 fps
Color space : YUV
Chroma subsampling : 4:2:0
Bit depth : 8 bits
Scan type : Progressive
Compression mode : Lossy
Bits/(Pixel*Frame) : 0.187
Stream size : 558 MiB (80%)
Writing library : XviD 1.2.1 (UTC 2008-12-04)

Audio
ID : 1
Format : AC-3
Format/Info : Audio Coding 3
Mode extension : CM (complete main)
Codec ID : 2000
Duration : 43mn 50s
Bit rate mode : Constant
Bit rate : 448 Kbps
Channel(s) : 2 channels
Channel positions : Front: L R
Sampling rate : 48.0 KHz
Bit depth : 16 bits
Compression mode : Lossy
Stream size : 141 MiB (20%)
Alignment : Split accross interleaves
Interleave, duration : 40 ms (1.00 video frame)
Interleave, preload duration : 500 ms
Скриншоты:


Смотреть Online

http://moonwalk.cc/video/9c84042b306df9db/iframe
Детали торрента:
Название:Восхождение (1976) DVDRip
Дата добавления:31 Авг 2011 10:37:09
Размер:1,37 GB
Раздают:2
Качают:0
Форум:Старые Отечественные Фильмы (HD*Rip/LQ, DVDRip, SATRip, VHSRip)

All rights reserved © 2015-2018