TORRENTS43.COM

Скачать Месье Ленуар, который... (1983) DVDRip


Месье Ленуар, который... (1983) DVDRip
Название: Месье Ленуар, который...
Год выпуска: 1983
Жанр: комедия, драма, спектакль

Описание фильма:
Главная редакция литературно-драматических программ ЦТ.
Телеспектакль по пьесе Армана Салакру "Архипелаг Ленуар".

Глава фирмы и семейства месье Поль-Альбер Ленуар совершил преступление. Родственники собираются на семейный совет, чтобы защитить прежде всего свою честь и деньги.

Режиссер: Александр Орлов

Действующие лица и исполнители:
Поль-Альбер Ленуар - Владимир Этуш
Виктор - Вениамин Смехов
Адольф - Сергей Юрский
Князь Борэску - Валентин Гафт
Ортанс - Алла Казанская
Мари-Терез - Светлана Немоляева
Мари-Бланш - Раиса Этуш
Виконт - Анатолий Егоров
Лилиан - Екатерина Мазова
Гийом - Авангард Леонтьев
Жозеф - Леонид Каневский
Шарлотта - Алла Будницкая

Продолжительность: 01:10:21 + 01:21:11

Видеокодек: DivX 5
Битрейт видео: ~1734 kb/s
Размер кадра: 688 x 512
Качество видео: DVDRip
Аудиокодек: AC3 2.0
Битрейт аудио: 192 kb/s

Отчет MediaInfo:

Общее
Полное имя : D:\Torrent-film\Mesie.Lenuar.kotorij.1983.DivX.DVDRip\01_Mesie.Lenuar.kotorij.avi
Формат : AVI
Формат/Информация : Audio Video Interleave
Размер файла : 974 Мбайт
Продолжительность : 1 ч. 10 м.
Общий поток : 1936 Кбит/сек
Программа кодирования : VirtualDubModRus 1.5.10.2 (build 2542/release)
Библиотека кодирования : VirtualDubMod build 2542/release

Видео
Идентификатор : 0
Формат : MPEG-4 Visual
Параметр BVOP формата : 1
Параметр QPel формата : Нет
Параметр GMC формата : Без точки перехода
Параметр матрицы формата : Default (H.263)
Режим смешивания : Сжатый битовый поток
Идентификатор кодека : DX50
Идентификатор кодека/Подсказка : DivX 5
Продолжительность : 1 ч. 10 м.
Битрейт : 1734 Кбит/сек
Ширина : 688 пикселей
Высота : 512 пикселей
Соотношение сторон : 4:3
Частота кадров : 25,000 кадров/сек
Цветовое пространство : YUV
Субдискретизация насыщенности : 4:2:0
Битовая глубина : 8 бит
Тип развёртки : Прогрессивная
Метод сжатия : С потерями
Бит/(Пиксели*Кадры) : 0.197
Размер потока : 873 Мбайт (90%)
Библиотека кодирования : DivX 6.8.3-6.8.4 (UTC 2008-06-07)

Аудио
Идентификатор : 1
Формат : AC-3
Формат/Информация : Audio Coding 3
Расширение режима : CM (complete main)
Идентификатор кодека : 2000
Продолжительность : 1 ч. 10 м.
Вид битрейта : Постоянный
Битрейт : 192 Кбит/сек
Каналы : 2 канала
Расположение каналов : Front: L R
Частота : 48,0 КГц
Битовая глубина : 16 бит
Метод сжатия : С потерями
Размер потока : 96,6 Мбайт (10%)
Выравнивание : Соединение по промежуткам
Продолжительность промежутка : 40 мс. (1,00 видеокадр)
Время предзагрузки промежутка : 512 мс.

Общее
Полное имя : D:\Torrent-film\Mesie.Lenuar.kotorij.1983.DivX.DVDRip\02_Mesie.Lenuar.kotorij.avi
Формат : AVI
Формат/Информация : Audio Video Interleave
Размер файла : 1,10 Гбайт
Продолжительность : 1 ч. 21 м.
Общий поток : 1936 Кбит/сек
Программа кодирования : VirtualDubModRus 1.5.10.2 (build 2542/release)
Библиотека кодирования : VirtualDubMod build 2542/release

Видео
Идентификатор : 0
Формат : MPEG-4 Visual
Параметр BVOP формата : 1
Параметр QPel формата : Нет
Параметр GMC формата : Без точки перехода
Параметр матрицы формата : Default (H.263)
Режим смешивания : Сжатый битовый поток
Идентификатор кодека : DX50
Идентификатор кодека/Подсказка : DivX 5
Продолжительность : 1 ч. 21 м.
Битрейт : 1734 Кбит/сек
Ширина : 688 пикселей
Высота : 512 пикселей
Соотношение сторон : 4:3
Частота кадров : 25,000 кадров/сек
Цветовое пространство : YUV
Субдискретизация насыщенности : 4:2:0
Битовая глубина : 8 бит
Тип развёртки : Прогрессивная
Метод сжатия : С потерями
Бит/(Пиксели*Кадры) : 0.197
Размер потока : 1007 Мбайт (90%)
Библиотека кодирования : DivX 6.8.3-6.8.4 (UTC 2008-06-07)

Аудио
Идентификатор : 1
Формат : AC-3
Формат/Информация : Audio Coding 3
Расширение режима : CM (complete main)
Идентификатор кодека : 2000
Продолжительность : 1 ч. 21 м.
Вид битрейта : Постоянный
Битрейт : 192 Кбит/сек
Каналы : 2 канала
Расположение каналов : Front: L R
Частота : 48,0 КГц
Битовая глубина : 16 бит
Метод сжатия : С потерями
Размер потока : 112 Мбайт (10%)
Выравнивание : Соединение по промежуткам
Продолжительность промежутка : 40 мс. (1,00 видеокадр)
Время предзагрузки промежутка : 512 мс.
Скриншоты:




Детали торрента:
Название:Месье Ленуар, который... (1983) DVDRip
Дата добавления:02 Ноя 2011 18:08:49
Размер:2,05 GB
Раздают:1
Качают:0
Форум:Театр

All rights reserved © 2015-2018