TORRENTS43.COM

Скачать Чуридило (1976) DVDRip


Чуридило (1976) DVDRip
Русское название: Чуридило
Год выпуска: 1976
Жанр: Детский



Режиссер: Леонид Носырев
Роли озвучивали: Галина Иванова, Георгий Тараторкин

Описание фильма:
По мотивам сказки венгерского писателя Эрвина Лазара.

Продолжительность: 00:09:43
Качество видео: DVDRip

Видеокодек: Xvid
Битрейт видео: ~1100 kb/s
Размер кадра: 640x480
Аудиокодек: MP3, 2 ch
Битрейт аудио: 96 kb/s

MediaInfo

Общее
Полное имя : G:\Мультфильмы\Советские мультфильмы\Ч\Чуридило.avi
Формат : AVI
Формат/Информация : Audio Video Interleave
Размер файла : 83,9 Мбайт
Продолжительность : 9 м. 43 с.
Общий поток : 1206 Кбит/сек
Программа кодирования : VirtualDubMod 1.5.10.2 (build 2540/release)
Библиотека кодирования : VirtualDubMod build 2540/release

Видео
Идентификатор : 0
Формат : MPEG-4 Visual
Профиль формата : Advanced Simple@L5
Параметр BVOP формата : 1
Параметр QPel формата : Нет
Параметр GMC формата : Без точки перехода
Параметр матрицы формата : Default (MPEG)
Идентификатор кодека : XVID
Идентификатор кодека/Подсказка : XviD
Продолжительность : 9 м. 43 с.
Битрейт : 1100 Кбит/сек
Ширина : 640 пикс.
Высота : 480 пикс.
Соотношение сторон : 4:3
Частота кадров : 25,000 кадр/сек
Цветовое пространство : YUV
Подвыборка цветности : 4:2:0
Битовая глубина : 8 бит
Тип развёртки : Прогрессивная
Метод сжатия : С потерями
Бит/(Пиксели*Кадры) : 0.143
Размер потока : 76,5 Мбайт (91%)
Библиотека кодирования : XviD 1.2.1 (UTC 2008-12-04)

Аудио
Идентификатор : 1
Формат : MPEG Audio
Версия формата : Version 1
Профиль формата : Layer 3
Идентификатор кодека : 55
Идентификатор кодека/Подсказка : MP3
Продолжительность : 9 м. 43 с.
Вид битрейта : Постоянный
Битрейт : 96,0 Кбит/сек
Канал(ы) : 2 канала(ов)
Частота : 32,0 КГц
Метод сжатия : С потерями
Размер потока : 6,68 Мбайт (8%)
Выравнивание : Соединение по промежуткам
Продолжительность промежутка : 40 мс. (1,00 видеокадр)
Время предзагрузки промежутка : 504 ms
Библиотека кодирования : LAME3.98r
Настройки программы : -m s -V 4 -q 0 -lowpass 15.1 -b 96
Скриншоты:


Детали торрента:
Название:Чуридило (1976) DVDRip
Дата добавления:22 Ноя 2011 13:53:42
Размер:83,9 MB
Раздают:1
Качают:0
Форум:Отечественные Мультфильмы для детей

All rights reserved © 2015-2018