TORRENTS43.COM

Скачать Пути Господни. Иоанн Кронштадский (2001) DVDRip


Пути Господни. Иоанн Кронштадский (2001) DVDRip
Название: Пути Господни. Иоанн Кронштадский

Режиссер: Нелли Шевченко
Год выпуска: 2001
Жанр: Документальный

Описание:
Цикл документальных фильмов Пути Господни, рассказывающих о жизни известных и чтимых РПЦ людей, об их подвигах и тяжёлых испытаниях. Данный фильм о святом праведном Иоанне Кронштадском.

Продолжительность: 00:24:13

Видеокодек: Xvid
Битрейт видео: 1 543 Kbps
Размер кадра: 720x544
Качество видео: DVDRip
Аудиокодек: MPEG Layer 3
Битрейт аудио: 160 kb/s, 48.0 кГц

MediaInfo:

General
Complete name : E:\Пути Господни _ Иоанн Кронштадский (DVDRip).avi
Format : AVI
Format/Info : Audio Video Interleave
File size : 297 MiB
Duration : 24mn 13s
Overall bit rate : 1 715 Kbps
Movie name : Пути Господни _ Иоанн Кронштадский
Director : DVDRip for www.pravtor.spb.ru
Writing application : MEncoder Sherpya-SVN-r34118-4.2.5
Writing library : MPlayer
Comment : DVDRip by andrejpushkaryov

Video
ID : 0
Format : MPEG-4 Visual
Format profile : Advanced Simple@L5
Format settings, BVOP : Yes
Format settings, QPel : No
Format settings, GMC : No warppoints
Format settings, Matrix : Default (H.263)
Muxing mode : Packed bitstream
Codec ID : XVID
Codec ID/Hint : XviD
Duration : 24mn 13s
Bit rate : 1 543 Kbps
Width : 720 pixels
Height : 544 pixels
Display aspect ratio : 4:3
Frame rate : 25.000 fps
Color space : YUV
Chroma subsampling : 4:2:0
Bit depth : 8 bits
Scan type : Progressive
Bits/(Pixel*Frame) : 0.158
Stream size : 267 MiB (90%)
Writing library : XviD 63

Audio
ID : 1
Format : MPEG Audio
Format version : Version 1
Format profile : Layer 3
Mode : Joint stereo
Codec ID : 55
Codec ID/Hint : MP3
Duration : 24mn 12s
Bit rate mode : Constant
Bit rate : 160 Kbps
Channel(s) : 2 channels
Sampling rate : 48.0 KHz
Video delay : 40ms
Stream size : 27.7 MiB (9%)
Alignment : Aligned on interleaves
Interleave, duration : 24 ms (0.60 video frame)
Interleave, preload duration : 504 ms
Writing library : LAME3.98.4
Скриншоты:


Детали торрента:
Название:Пути Господни. Иоанн Кронштадский (2001) DVDRip
Дата добавления:10 Дек 2011 18:46:07
Размер:297 MB
Раздают:
Качают:0
Форум:Религии и культы

All rights reserved © 2015-2018