TORRENTS43.COM

Скачать Огниво (2009) DVDRip


Огниво (2009) DVDRip
Русское название: Огниво
Год выпуска: 2009
Жанр: Детский

Режиссер: Мария Парфенова
Роли озвучивали: Раиса Нур

Описание фильма:
Анимированная история по мотивам известной сказки Ганса Христиана Андерсена для детей.

Продолжительность: 00:07:16
Качество видео: DVDRip

Видеокодек: Xvid
Битрейт видео: ~1655 kb/s
Размер кадра: 704x528
Аудиокодек: AC3, 2 ch
Битрейт аудио: 192 kb/s

MediaInfo

Общее
Полное имя : G:\Мультфильмы\Советские мультфильмы\О\Огниво.2009.XviD.DVDRip.avi
Формат : AVI
Формат/Информация : Audio Video Interleave
Размер файла : 96,4 Мбайт
Продолжительность : 7 м. 16 с.
Общий поток : 1853 Кбит/сек

Видео
Идентификатор : 0
Формат : MPEG-4 Visual
Профиль формата : Advanced Simple@L5
Параметр BVOP формата : 2
Параметр QPel формата : Нет
Параметр GMC формата : Без точки перехода
Параметр матрицы формата : Default (H.263)
Режим смешивания : Сжатый битовый поток
Идентификатор кодека : XVID
Идентификатор кодека/Подсказка : XviD
Продолжительность : 7 м. 16 с.
Битрейт : 1655 Кбит/сек
Ширина : 704 пикс.
Высота : 528 пикс.
Соотношение сторон : 4:3
Частота кадров : 25,000 кадр/сек
Цветовое пространство : YUV
Подвыборка цветности : 4:2:0
Битовая глубина : 8 бит
Тип развёртки : Прогрессивная
Метод сжатия : С потерями
Бит/(Пиксели*Кадры) : 0.178
Размер потока : 86,1 Мбайт (89%)
Библиотека кодирования : XviD 1.2.1 (UTC 2008-12-04)

Аудио
Идентификатор : 1
Формат : AC-3
Формат/Информация : Audio Coding 3
Расширение режима : CM (complete main)
Идентификатор кодека : 2000
Продолжительность : 7 м. 16 с.
Вид битрейта : Постоянный
Битрейт : 192 Кбит/сек
Канал(ы) : 2 канала(ов)
Расположение каналов : Front: L R
Частота : 48,0 КГц
Битовая глубина : 16 бит
Метод сжатия : С потерями
Размер потока : 9,99 Мбайт (10%)
Выравнивание : Соединение по промежуткам
Продолжительность промежутка : 200 мс. (5,00 видеокадров)
Скриншоты:


Детали торрента:
Название:Огниво (2009) DVDRip
Дата добавления:11 Дек 2011 10:21:22
Размер:96,4 MB
Раздают:
Качают:0
Форум:Отечественные Мультфильмы для детей

All rights reserved © 2015-2018