TORRENTS43.COM

Скачать Too Slim And The Taildraggers - Shiver (2011) [FLAC|Lossless]<Blues-Rock>


Too Slim And The Taildraggers - Shiver (2011)
Год: 2011
Жанр: Blues-Rock
Продолжительность: 00:53:54
Лейбл: Underworld/Burnside BURNUND0018

Кодек: FLAC
Битрейт: Lossless
Тип рипа: image+.cue
Источник: dmitrych2

Треклист:
01. Stoned Again (4:36)
02. Daddies Bones (4:55)
03. Can't Dress It Up (5:05)
04. In Your Corner (4:54)
05. I Heard Voices (0:48)
06. Everybody's Got Something (5:02)
07. Workin' (5:57)
08. She Sees Ghosts (4:45)
09. Inside of Me (4:29)
10. As the Tears Go By (4:52)
11. Shiver (4:01)
12. Bucerius (4:30)

Дополнительная информация:

Tim "Too Slim" Langford - Guitar, Vocals
Tommy Cook - Drums, Percussion
Polly O'Keary - Bass, Vocals
and guests
Joe Doria - Hammond B3
Al Gomez - Trumpet
Mark "Kaz" Kazanoff - Sax (Tenor)...and others

Отчёт ЕАС:

Код:

Exact Audio Copy V1.0 beta 3 from 29. August 2011

Отчёт EAC об извлечении, выполненном 9. февраля 2012, 17:56

Too Slim & The Taildraggers / Shiver

Дисковод: Optiarc DVD RW AD-7220A   Adapter: 0  ID: 1

Режим чтения                 : Достоверность
Использование точного потока : Да
Отключение кэша аудио        : Да
Использование указателей C2  : Нет

Коррекция смещения при чтении                     : 6
Способность читать области Lead-in и Lead-out     : Нет
Заполнение пропущенных сэмплов тишиной            : Да
Удаление блоков с тишиной в начале и конце        : Нет
При вычислениях CRC использовались нулевые сэмплы : Да
Интерфейс                                         : Установленный внешний ASPI-интерфейс

Выходной формат          : Пользовательский кодировщик
Выбранный битрейт        : 768 kBit/s
Качество                 : Высокий
Добавление ID3-тега      : Нет
Утилита сжатия           : C:\Program Files\Exact Audio Copy\FLAC\FLAC.EXE
Дополнительные параметры : -8 -V -T "ARTIST=%artist%" -T "TITLE=%title%" -T "ALBUM=%albumtitle%" -T "DATE=%year%" -T "TRACKNUMBER=%tracknr%" -T "GENRE=%genre%" -T "COMMENT=www.blues.at.ua" -T "URL=www.blues.at.ua" %source%

TOC извлечённого CD

     Трек |   Старт  | Длительность | Начальный сектор | Конечный сектор
    ---------------------------------------------------------------------
       1  |  0:00.00 |    4:38.20   |           0      |      20869
       2  |  4:38.20 |    4:57.51   |       20870      |      43195
       3  |  9:35.71 |    5:07.60   |       43196      |      66280
       4  | 14:43.56 |    4:56.35   |       66281      |      88515
       5  | 19:40.16 |    0:50.02   |       88516      |      92267
       6  | 20:30.18 |    5:04.18   |       92268      |     115085
       7  | 25:34.36 |    5:59.65   |      115086      |     142075
       8  | 31:34.26 |    4:47.54   |      142076      |     163654
       9  | 36:22.05 |    4:31.33   |      163655      |     184012
      10  | 40:53.38 |    4:54.34   |      184013      |     206096
      11  | 45:47.72 |    4:03.59   |      206097      |     224380
      12  | 49:51.56 |    4:30.73   |      224381      |     244703

Характеристики диапазона извлечения и сообщения об ошибках

Выбранный диапазон

     Имя файла D:\My MusicLarry\Too Slim & The Taildraggers - Shiver\Too Slim & The Taildraggers - Shiver.wav

     Пиковый уровень 98.7 %
     Скорость извлечения 5.8 X
     Качество диапазона 100.0 %
     CRC копии BB95B118
     Копирование... OK

Ошибок не произошло

Конец отчёта

Отчёт auCDtect Task manager:

Код:

-----------------------

DON'T MODIFY THIS FILE

-----------------------

PERFORMER: auCDtect Task Manager, ver. 1.5.1RC3 build 1.5.1.4
Copyright (c) 2008-2010 y-soft. All rights reserved
http://y-soft.org

ANALYZER: auCDtect: CD records authenticity detector, version 0.8.2
Copyright (c) 2004 Oleg Berngardt. All rights reserved.
Copyright (c) 2004 Alexander Djourik. All rights reserved.

FILE: Too Slim & The Taildraggers - Shiver.flac
  Size: 381542180 Hash: 1642D5A33DE30E633AC33DAFF3CFA5AD Accuracy: -m0
  Conclusion: CDDA 100%
  Signature: 4AEE748612127C91791681B3168DCFAFD7EB6162
Детали торрента:
Название:Too Slim And The Taildraggers - Shiver (2011) [FLAC|Lossless]<Blues-Rock>
Дата добавления:15 Фев 2012 23:22:25
Размер:370 MB
Раздают:2
Качают:0
Форум:Blues, Soul (Lossless)

All rights reserved © 2015-2018