TORRENTS43.COM

Скачать National Geographic Special: Суперкошки / National Geographic Special: Super Cat (2007) HDTV [720p]


National Geographic Special: Суперкошки / National Geographic Special: Super Cat (2007) HDTV [720p]
Русское название: National Geographic Special: Суперкошки
Оригинальное название: National Geographic Special: Super Cat
Режиссер / Телекомпания: National Geographic
Год выпуска: 2007
Жанр: Документальный

Описание:
Суперкошки: Большие кошки. Величайшие хищники, наделённые мощными инструментами: ночным зрением, острыми, как кинжал, зубами и когтями, рельефными мускулами для скорости и силой. Они могут съесть 27 килограмм мяса за один присест. Но как они преследуют и убивают крупную добычу, которой порой становится даже человек? Заглянем под шерсть, в глотку и даже под воду, чтобы понять секреты строения львов, тигров, леопардов и поразительного существа, которое может оказаться, самой большой, сильной, опасной и совершенной кошкой на свете.

Продолжительность: 00:47:33

Перевод: Одноголосый закадровый, профессиональный

Видеокодек: MPEG-4 AVC/H.264
Битрейт видео: ~3930 kb/s
Размер кадра: 1280x720
Качество видео: HDTV
Аудиокодек: AC3
Битрейт аудио: 448 kb/s
За материал Спасибо:

MediaInfo

Формат : MPEG-TS
Размер файла : 1,53 Гбайт
Продолжительность : 47 м.
Режим общего битрейта : Переменный
Общий поток : 4610 Кбит/сек
Максимальный общий битрейт : 35,5 Мбит/сек

Видео
Идентификатор : 4113 (0x1011)
Идентификатор меню : 1 (0x1)
Формат : AVC
Формат/Информация : Advanced Video Codec
Профиль формата : High@L4.0
Параметр CABAC формата : Да
Параметр ReFrames формата : 4 кадра
Параметр GOP формата : M=3, N=33
Идентификатор кодека : 27
Продолжительность : 47 м.
Вид битрейта : Переменный
Битрейт : 3930 Кбит/сек
Максимальный битрейт : 8000 Кбит/сек
Ширина : 1280 пикселей
Высота : 720 пикселей
Соотношение сторон : 16:9
Частота кадров : 25,000 кадров/сек
Цветовое пространство : YUV
Субдискретизация насыщенности : 4:2:0
Битовая глубина : 8 бит
Тип развёртки : Прогрессивная
Бит/(Пиксели*Кадры) : 0.171
Размер потока : 1,31 Гбайт (85%)
Основные цвета : BT.709-5, BT.1361, IEC 61966-2-4, SMPTE RP177
Характеристики трансфера : BT.709-5, BT.1361
Коэффициенты матрицы : BT.709-5, BT.1361, IEC 61966-2-4 709, SMPTE RP177

Аудио
Идентификатор : 4352 (0x1100)
Идентификатор меню : 1 (0x1)
Формат : AC-3
Формат/Информация : Audio Coding 3
Расширение режима : CM (complete main)
Идентификатор кодека : 129
Продолжительность : 47 м.
Вид битрейта : Постоянный
Битрейт : 448 Кбит/сек
Каналы : 6 каналов
Расположение каналов : Front: L C R, Side: L R, LFE
Частота : 48,0 КГц
Битовая глубина : 16 бит
Метод сжатия : С потерями
Задержка видео : 19 мс.
Размер потока : 152 Мбайт (10%)
Язык : Russian
Скриншоты:


Детали торрента:
Название:National Geographic Special: Суперкошки / National Geographic Special: Super Cat (2007) HDTV [720p]
Дата добавления:02 Мар 2012 20:47:04
Размер:1,53 GB
Раздают:
Качают:0
Форум:National Geographic

All rights reserved © 2015-2018