TORRENTS43.COM

Скачать Малышка на миллион / Million Dollar Baby (2004) [720p] BDRip


Малышка на миллион / Million Dollar Baby (2004) [720p] BDRip
«Beyond his silence, there is a past. Beyond her dreams, there is a feeling. Beyond hope, there is a memory. Beyond their journey, there is a love.»
Русское название: Малышка на миллион
Оригинальное название: Million Dollar Baby
Год выпуска: 2004
Жанр: Драма, Спорт

Описание фильма:
Тренер по боксу Фрэнк Данн переживает не лучшие времена. Из-за сложных отношений со своей дочерью он долгое время не позволял себе привязываться к кому-либо, боясь вновь пережить потерю. Однако все меняется, когда в его тренировочном зале появляется Мэгги. Существуя в постоянной борьбе с окружающим миром, Мэгги выработала в себе непоколебимую стойкость духа и волю к победе. Но больше всего на свете она хочет, чтобы в нее поверили.
Фрэнк не хочет брать на себя ответственность, однако упорство Мэгги побеждает. В водовороте жизненных перипетий эти двое осознают, что стремятся к одному и тому же: забыть прошлое и обрести семью. Впереди их ждет главное сражение жизни, для которого им потребуется собрать в своих сердцах столько мужества, сколько раньше они и представить себе не могли…

Режиссер: Клинт Иствуд
Актеры: Клинт Иствуд, Хилари Суэнк, Морган Фриман, Джей Барушель, Майк Колтер, Люсия Рижкер, Брайан Ф. О’Бирн, Энтони Маки, Марго Мартиндейл, Рики Линдхоум

Продолжительность: 02:12:35
Перевод: Дублированный, Авторский одноголосый, закадровый
Язык субтитров: Русский, Английский

Мировая премьера: 15 декабря 2004,
Российская премьера: 10 марта 2005, «Гемини Киномир»

Видеокодек: MPEG-4 AVC/H.264
Битрейт видео: ~4773 kbps
Размер кадра: 1280x534
Качество видео: BDRip
Аудио#1: Русский: 48 kHz, AC3, 3/2 (L,C,R,l,r) + LFE ch, ~448 kbps avg |Дубляж, R5|
Аудио#2: Русский: 48 kHz, AC3, 2/0 (L,R) ch, ~192 kbps avg |Одноголосый закадровый, С.Визгунов|
Аудио#3: Русский: 48 kHz, DTS, 3/2 (L,C,R,l,r) + LFE ch, ~1536 kbps avg |Одноголосый закадровый, Ю.Живов|
Аудио#4: Русский: 48 kHz, DTS, 3/2 (L,C,R,l,r) + LFE ch, ~1536 kbps avg |Одноголосый закадровый, Jakob Bellmann|
Аудио#5: Английский: 48 kHz, DTS, 3/2 (L,C,R,l,r) + LFE ch, ~1536 kbps avg

MI

Код:

General
Complete name                    : H:\Million.Dollar.Baby.2004.720p.BluRay.Rus.Eng..mkv
Format                           : Matroska
File size                        : 9.39 GiB
Duration                         : 2h 12mn
Overall bit rate                 : 10.1 Mbps
Encoded date                     : UTC 2012-03-11 07:49:27
Writing application              : mkvmerge v3.4.0 ('Rapunzel') сборка от May 15 2010 09:38:20
Writing library                  : libebml v0.8.0 + libmatroska v0.9.0

Video
ID                               : 1
Format                           : AVC
Format/Info                      : Advanced Video Codec
Format profile                   : High@L4.1
Format settings, CABAC           : Yes
Format settings, ReFrames        : 12 frames
Muxing mode                      : Container profile=Unknown@4.1
Codec ID                         : V_MPEG4/ISO/AVC
Duration                         : 2h 12mn
Bit rate                         : 4 773 Kbps
Nominal bit rate                 : 4 975 Kbps
Width                            : 1 280 pixels
Height                           : 534 pixels
Display aspect ratio             : 2.35:1
Frame rate                       : 23.976 fps
Resolution                       : 8 bits
Colorimetry                      : 4:2:0
Scan type                        : Progressive
Bits/(Pixel*Frame)               : 0.291
Stream size                      : 4.41 GiB (47%)
Title                            : Million.Dollar.Baby.2004.BluRay.720p.DTS.x264-CHD
Writing library                  : x264 core 102 r1666 d058f37
Encoding settings                : cabac=1 / ref=12 / deblock=1:-3:-3 / analyse=0x3:0x113 / me=umh / subme=10 / psy=1 / psy_rd=1.05:0.10 / mixed_ref=1 / me_range=32 / chroma_me=1 / trellis=2 / 8x8dct=1 / cqm=2 / deadzone=21,11 / fast_pskip=0 / chroma_qp_offset=-2 / threads=6 / sliced_threads=0 / nr=0 / decimate=1 / interlaced=0 / constrained_intra=0 / bframes=6 / b_pyramid=2 / b_adapt=2 / b_bias=0 / direct=3 / weightb=1 / open_gop=0 / weightp=2 / keyint=250 / keyint_min=25 / scenecut=40 / intra_refresh=0 / rc_lookahead=40 / rc=2pass / mbtree=1 / bitrate=4975 / ratetol=1.0 / qcomp=0.60 / qpmin=10 / qpmax=51 / qpstep=4 / cplxblur=20.0 / qblur=0.5 / vbv_maxrate=50000 / vbv_bufsize=50000 / ip_ratio=1.40 / aq=1:0.80 / nal_hrd=none
Language                         : English

Audio #1
ID                               : 2
Format                           : AC-3
Format/Info                      : Audio Coding 3
Codec ID                         : A_AC3
Duration                         : 2h 12mn
Bit rate mode                    : Constant
Bit rate                         : 448 Kbps
Channel(s)                       : 6 channels
Channel positions                : Front: L C R, Surround: L R, LFE
Sampling rate                    : 48.0 KHz
Stream size                      : 425 MiB (4%)
Title                            : AC3 5.1 @ 448 kbps - Дубляж, R5
Language                         : Russian

Audio #2
ID                               : 3
Format                           : AC-3
Format/Info                      : Audio Coding 3
Codec ID                         : A_AC3
Duration                         : 2h 12mn
Bit rate mode                    : Constant
Bit rate                         : 192 Kbps
Channel(s)                       : 2 channels
Channel positions                : L R
Sampling rate                    : 48.0 KHz
Stream size                      : 182 MiB (2%)
Title                            : AC3 2.0 @ 192 kbps - Одноголосый закадровый, С.Визгунов
Language                         : Russian

Audio #3
ID                               : 4
Format                           : DTS
Format/Info                      : Digital Theater Systems
Codec ID                         : A_DTS
Duration                         : 2h 12mn
Bit rate mode                    : Constant
Bit rate                         : 1 510 Kbps
Channel(s)                       : 6 channels
Channel positions                : Front: L C R, Surround: L R, LFE
Sampling rate                    : 48.0 KHz
Resolution                       : 16 bits
Stream size                      : 1.40 GiB (15%)
Title                            : DTS 5.1 @ 1536 kbps - Одноголосый закадровый, Ю.Живов
Language                         : Russian

Audio #4
ID                               : 5
Format                           : DTS
Format/Info                      : Digital Theater Systems
Codec ID                         : A_DTS
Duration                         : 2h 12mn
Bit rate mode                    : Constant
Bit rate                         : 1 510 Kbps
Channel(s)                       : 6 channels
Channel positions                : Front: L C R, Surround: L R, LFE
Sampling rate                    : 48.0 KHz
Resolution                       : 16 bits
Stream size                      : 1.40 GiB (15%)
Title                            : DTS 5.1 @ 1536 kbps - Одноголосый закадровый, Jakob Bellmann
Language                         : Russian

Audio #5
ID                               : 6
Format                           : DTS
Format/Info                      : Digital Theater Systems
Codec ID                         : A_DTS
Duration                         : 2h 12mn
Bit rate mode                    : Constant
Bit rate                         : 1 510 Kbps
Channel(s)                       : 6 channels
Channel positions                : Front: L C R, Surround: L R, LFE
Sampling rate                    : 48.0 KHz
Resolution                       : 16 bits
Stream size                      : 1.40 GiB (15%)
Title                            : DTS 5.1 @ 1536 kbps
Language                         : English

Text #1
ID                               : 7
Format                           : UTF-8
Codec ID                         : S_TEXT/UTF8
Codec ID/Info                    : UTF-8 Plain Text
Language                         : Russian

Text #2
ID                               : 8
Format                           : UTF-8
Codec ID                         : S_TEXT/UTF8
Codec ID/Info                    : UTF-8 Plain Text
Language                         : English


Скриншоты из фильма:




Релиз от:

Цитата

  • Дорожка №3 получена наложением выделенного голоса на центр декодированного DTS-HD MA. А так же голосу возвращена тональная "окраска" присущая Живову , так как она по не понятным причинам была утеряна "отродясь" - т.е. еще с ДВД релиза, очищена от вздохов и оговорок и по новой переуложена .

  • Дорожка №4 получена наложением чистого голоса на центр декодированного DTS-HD MA.

  • В релизе использовалась звуковая дорожка дубляжа AC3, сравнение с DTS под спойлером.

Сравнительные спектры дорожек

AC3

DTS

Приятного просмотра
и не забываем говорить СПАСИБО...

Время раздачи: 24/7
до 15 скачавших..

Смотреть Online

http://moonwalk.cc/video/0d375b01f7bc2789b4cbd510d3e14ef3/iframe
Детали торрента:
Название:Малышка на миллион / Million Dollar Baby (2004) [720p] BDRip
Дата добавления:11 Мар 2012 23:37:41
Размер:9,39 GB
Раздают:1
Качают:0
Форум:Зарубежные Фильмы (HD, UHD-LQ)

All rights reserved © 2015-2018