TORRENTS43.COM

Скачать "Квартет И" на РЕН ТВ (2 выпуска) (2010) SATRip


"Квартет И" на РЕН ТВ (2 выпуска) (2010) SATRip
Русское название: "Квартет И" на РЕН ТВ
Режиссер / Телекомпания: Вадим Киселев/РенТВ
Авторы сценария: "Квартет И"
Год выпуска: 2010
Жанр: Телепередача, юмор

Описание:
Комический театр "Квартет И" - легендарные Ростислав Хаит, Леонид Барац, Камиль Ларин и Александр Демидов предстанут в эфире Телеканала РЕН ... в весьма неожиданном качестве. Четверо мужчин в возрасте от 38 до 43 лет обсуждают друг с другом, а также с Алексеем Кортневым, Василием Уткиным, Андреем Макаревичем и другими проблемы, волнующие мужчин в возрасте от 38 до 43 лет. За что жёны должны быть благодарны любовницам своих мужей, можно ли испытывать неловкость перед собственным свитером и есть ли что-то героическое в смерти от обжорства. Ни к каким выводам они не придут, но наблюдать за процессом реально увлекательно!

1 выпуск:
Продолжительность: 01:08:41

Формат: AVI
Видео: XviD; 688x512; 25 fps; ~1920 Кб/с
Аудио: AC3, 2 ch; ~384.00 Кб/с

Скриншоты:

MediaInfo

Общее
Полное имя : D:\Квартет И на РЕН ТВ\Kvartet.I.na.Ren.TV.2010.XviD.SATRip.avi
Формат : AVI
Формат/Информация : Audio Video Interleave
Размер файла : 1,11 Гбайт
Продолжительность : 1 ч. 8 м.
Общий поток : 2314 Кбит/сек
Программа кодирования : FairUse Wizard - http://fairusewizard.com
Библиотека кодирования : The best and REALLY easy backup tool

Видео
Идентификатор : 0
Формат : MPEG-4 Visual
Профиль формата : Advanced Simple@L5
Параметр BVOP формата : 1
Параметр QPel формата : Нет
Параметр GMC формата : Без точки перехода
Параметр матрицы формата : Default (MPEG)
Режим смешивания : Сжатый битовый поток
Идентификатор кодека : XVID
Идентификатор кодека/Подсказка : XviD
Продолжительность : 1 ч. 8 м.
Битрейт : 1921 Кбит/сек
Ширина : 688 пикселей
Высота : 512 пикселей
Соотношение сторон : 4:3
Частота кадров : 25,000 кадров/сек
Цветовое пространство : YUV
Субдискретизация насыщенности : 4:2:0
Битовая глубина : 8 бит
Тип развёртки : Прогрессивная
Метод сжатия : С потерями
Бит/(Пиксели*Кадры) : 0.218
Размер потока : 944 Мбайт (83%)
Библиотека кодирования : XviD 1.2.0.dev47 (UTC 2006-11-01)

Аудио
Идентификатор : 1
Формат : AC-3
Формат/Информация : Audio Coding 3
Расширение режима : CM (complete main)
Идентификатор кодека : 2000
Продолжительность : 1 ч. 8 м.
Вид битрейта : Постоянный
Битрейт : 384 Кбит/сек
Каналы : 2 канала
Расположение каналов : Front: L R
Частота : 48,0 КГц
Битовая глубина : 16 бит
Метод сжатия : С потерями
Размер потока : 189 Мбайт (17%)
Выравнивание : Разделение по промежуткам
Продолжительность промежутка : 40 мс. (1,00 видеокадр)
Время предзагрузки промежутка : 500 мс.
2 выпуск:
Продолжительность: 01:15:38

Формат: TS
Видео: MPEG2; 704x576; 25 fps; ~3100 Кб/с
Аудио: MP2, 1 ch; ~192 Кб/с

Скриншоты:

MediaInfo

Общее
Идентификатор : 16 (0x10)
Полное имя : D:\Квартет И на РЕН ТВ\Квартет_И_на_Рен-ТВ_Выпуск_2_SATRemux.ts
Формат : MPEG-TS
Размер файла : 1,83 Гбайт
Продолжительность : 1 ч. 15 м.
Режим общего битрейта : Переменный
Общий поток : 3463 Кбит/сек

Видео
Идентификатор : 329 (0x149)
Идентификатор меню : 3 (0x3)
Формат : MPEG Video
Версия формата : Version 2
Профиль формата : Main@Main
Параметр BVOP формата : Да
Параметр матрицы формата : Выборочная
Идентификатор кодека : 2
Продолжительность : 1 ч. 15 м.
Вид битрейта : Переменный
Битрейт : 3098 Кбит/сек
Максимальный битрейт : 15,0 Мбит/сек
Ширина : 704 пикселя
Высота : 576 пикселей
Соотношение сторон : 4:3
Частота кадров : 25,000 кадров/сек
Стандарт вещания : PAL
Цветовое пространство : YUV
Субдискретизация насыщенности : 4:2:0
Битовая глубина : 8 бит
Тип развёртки : Прогрессивная
Порядок развёртки : Верхнее поле первое
Метод сжатия : С потерями
Бит/(Пиксели*Кадры) : 0.306
Размер потока : 1,64 Гбайт (89%)
Библиотека кодирования : (c) 1998-2010 Womble Multimedia, Inc. / MPEG Video Wizard DVD 5.0.0.114 (01/2010) / Aug 21 2010

Аудио
Идентификатор : 416 (0x1A0)
Идентификатор меню : 3 (0x3)
Формат : MPEG Audio
Версия формата : Version 1
Профиль формата : Layer 2
Расширение режима : Intensity Stereo + MS Stereo
Идентификатор кодека : 3
Продолжительность : 1 ч. 15 м.
Вид битрейта : Постоянный
Битрейт : 192 Кбит/сек
Каналы : 1 канал
Частота : 48,0 КГц
Метод сжатия : С потерями
Размер потока : 104 Мбайт (6%)
Детали торрента:
Название:"Квартет И" на РЕН ТВ (2 выпуска) (2010) SATRip
Дата добавления:20 Мар 2012 13:21:49
Размер:2,94 GB
Раздают:
Качают:0
Форум:Юмор

All rights reserved © 2015-2018