TORRENTS43.COM

Скачать В мертвой петле (1962) TVRip


В мертвой петле (1962) TVRip
Русское название: В мертвой петле
Год выпуска: 1962
Жанр: Биографический

Описание фильма:
Фильм повествует о любимце Одессы начала XX века, одном из первых российских лётчиков - Сергее Уточкине.
Жизнь этого незаурядного человека складывалась трагически. С идеей развития отечественного воздухоплавания Уточкин обращался к высшим чиновникам, но его не приняли всерьёз и поместили в психиатрическую лечебницу…

Режиссер: Суламифь Цыбульник, Николай Ильинский
Актеры: Олег Стриженов, Виктор Коршунов, Станислав Чекан, Александр Мовчан, Эльза Леждей, Николай Лебедев (II), Георгий Бабенко, Петр Вескляров, Николай Волков (старший), Владимир Дальский, Таисия Литвиненко, Юрий Медведев, Дмитрий Милютенко, Лев Перфилов, Сергей Петров, Николай Пишванов, Григорий Тесля, Павел Шпрингфельд, Анатолий Скибенко, Надежда Титаренко

Продолжительность: 01:17:32



Видеокодек: Xvid
Битрейт видео: ~2325 kb/s
Размер кадра: 688 x 512
Качество видео: TVRip
Аудиокодек: MP3, 2 ch
Битрейт аудио: 192 kb/s

MediaInfo

Общее
Полное имя : В мертвой петле.1962.TVRip.[torrents43.com].avi
Формат : AVI
Формат/Информация : Audio Video Interleave
Размер файла : 1,37 Гбайт
Продолжительность : 1 ч. 17 м.
Общий поток : 2527 Кбит/сек
Программа кодирования : VirtualDubModRus 1.5.10.2 (build 2542/release)
Библиотека кодирования : VirtualDubMod build 2542/release

Видео
Идентификатор : 0
Формат : MPEG-4 Visual
Профиль формата : Advanced Simple@L5
Параметр BVOP формата : 2
Параметр QPel формата : Нет
Параметр GMC формата : Без точки перехода
Параметр матрицы формата : Default (MPEG)
Режим смешивания : Сжатый битовый поток
Идентификатор кодека : XVID
Идентификатор кодека/Подсказка : XviD
Продолжительность : 1 ч. 17 м.
Битрейт : 2326 Кбит/сек
Ширина : 688 пикселей
Высота : 512 пикселей
Соотношение сторон : 4:3
Частота кадров : 25,000 кадров/сек
Цветовое пространство : YUV
Субдискретизация насыщенности : 4:2:0
Битовая глубина : 8 бит
Тип развёртки : Прогрессивная
Метод сжатия : С потерями
Бит/(Пиксели*Кадры) : 0.264
Размер потока : 1,26 Гбайт (92%)
Библиотека кодирования : XviD 64

Аудио
Идентификатор : 1
Формат : MPEG Audio
Версия формата : Version 1
Профиль формата : Layer 3
Идентификатор кодека : 55
Идентификатор кодека/Подсказка : MP3
Продолжительность : 1 ч. 17 м.
Вид битрейта : Постоянный
Битрейт : 192 Кбит/сек
Каналы : 2 канала
Частота : 48,0 КГц
Метод сжатия : С потерями
Размер потока : 106 Мбайт (8%)
Выравнивание : Соединение по промежуткам
Продолжительность промежутка : 40 мс. (1,00 видеокадр)
Время предзагрузки промежутка : 504 мс.
Библиотека кодирования : LAME3.97
Настройки программы : -m s -V 4 -q 1 -b 192
Скриншоты:


Детали торрента:
Название:В мертвой петле (1962) TVRip
Дата добавления:15 Апр 2012 14:21:57
Размер:1,37 GB
Раздают:
Качают:0
Форум:Архив Классики и Старого кино / Артхаус

All rights reserved © 2015-2018