TORRENTS43.COM

Скачать Только она единственная / She's the One (1996) [1080p] BDRip


Только она единственная / She's the One (1996) BDRip
Русское название: Только она единственная
Оригинальное название: She's the One
Год выпуска: 1996
Жанр: Комедия, Мелодрама
Выпущено: США, Fox Searchlight Pictures

Описание фильма:
У отца было два сына. Один практичный, но со "спящим либидо" - так считала его красавица-жена, которой мама даже подарила вибратор. Второй - романтик, колесивший по стране полгода после того, как увидел свою невесту на полу с другим парнем. Романтичный старший брат, работающий таксистом, познакомился в своем авто с симпатичной девчонкой, и через 24 часа они уже поженились. Вскоре выясняется, что у практичного и богатенького брата есть, помимо жены, и любовница, но и она с ним оргазм лишь имитирует, получая его по три раза с одним "стариком". Эта любовница и оказалась бывшей невестой романтика, а практичный брат не мог ей изменять с... женой.

Режиссер: Эдвард Бёрнс
Актеры: Эдвард Бёрнс, Майк МакГлоун, Дженнифер Энистон, Максин Банс, Кэмерон Диаз, Джон Махони, Мэлаки МакКорт, Лесли Манн, Аманда Пит, Анита Джиллет

Продолжительность: 01:36:10
Перевод: Многоголосый закадровый
Язык субтитров: Pусские, украинские, английские
Вид субтитров: Вшитые



Видеокодек: MPEG-4 AVC/H.264
Битрейт видео: ~8252 kb/s
Размер кадра: 1920 x 1040
Качество видео: BDRip
Аудио 1: Русский, AC-3, 6 ch, 384 kb/s
Аудио 2: Английский, AC-3, 6 ch, 384 kb/s
Аудио 3: Английский, DTS, 2 ch, 1536 kb/s

MediaInfo

Общее
Уникальный идентификатор : 241714333071901581785838147775049529721 (0xB5D87CB978CE1B2499A644D1B8E07979)
Полное имя : Только она единственная.1996.x264.BDRip.1080p.[torrents43.com].mkv
Формат : Matroska
Версия формата : Version 2
Размер файла : 7,07 Гбайт
Продолжительность : 1 ч. 36 м.
Общий поток : 10,5 Мбит/сек
Дата кодирования : UTC 2012-03-08 21:16:46
Программа кодирования : mkvmerge v5.3.0 ('I could have danced') built on Feb 9 2012 10:38:07
Библиотека кодирования : libebml v1.2.3 + libmatroska v1.3.0

Видео
Идентификатор : 1
Формат : AVC
Формат/Информация : Advanced Video Codec
Профиль формата : High@L4.1
Параметр CABAC формата : Да
Параметр ReFrames формата : 4 кадра
Идентификатор кодека : V_MPEG4/ISO/AVC
Продолжительность : 1 ч. 36 м.
Битрейт : 8252 Кбит/сек
Ширина : 1920 пикселей
Высота : 1040 пикселей
Соотношение сторон : 1,85:1
Частота кадров : 23,976 кадра/сек
Цветовое пространство : YUV
Субдискретизация насыщенности : 4:2:0
Битовая глубина : 8 бит
Тип развёртки : Прогрессивная
Бит/(Пиксели*Кадры) : 0.172
Размер потока : 5,40 Гбайт (76%)
Библиотека кодирования : x264 core 120 r2164 da19765
Настройки программы : cabac=1 / ref=4 / deblock=1:0:0 / analyse=0x3:0x113 / me=umh / subme=8 / psy=1 / psy_rd=1.00:0.00 / mixed_ref=1 / me_range=16 / chroma_me=1 / trellis=1 / 8x8dct=1 / cqm=0 / deadzone=21,11 / fast_pskip=1 / chroma_qp_offset=-2 / threads=12 / sliced_threads=0 / nr=0 / decimate=1 / interlaced=0 / bluray_compat=0 / constrained_intra=0 / bframes=3 / b_pyramid=2 / b_adapt=2 / b_bias=0 / direct=3 / weightb=1 / open_gop=0 / weightp=2 / keyint=240 / keyint_min=24 / scenecut=40 / intra_refresh=0 / rc_lookahead=50 / rc=2pass / mbtree=1 / bitrate=8252 / ratetol=1.0 / qcomp=0.60 / qpmin=0 / qpmax=69 / qpstep=4 / cplxblur=20.0 / qblur=0.5 / ip_ratio=1.40 / aq=1:1.00
Язык : English
Default : Да
Forced : Нет

Аудио #1
Идентификатор : 2
Формат : AC-3
Формат/Информация : Audio Coding 3
Расширение режима : CM (complete main)
Параметр Endianness формата : Big
Идентификатор кодека : A_AC3
Продолжительность : 1 ч. 36 м.
Вид битрейта : Постоянный
Битрейт : 384 Кбит/сек
Каналы : 6 каналов
Расположение каналов : Front: L C R, Side: L R, LFE
Частота : 48,0 КГц
Битовая глубина : 16 бит
Метод сжатия : С потерями
Размер потока : 264 Мбайт (4%)
Заголовок : AC3
Язык : Russian
Default : Да
Forced : Нет

Аудио #2
Идентификатор : 3
Формат : AC-3
Формат/Информация : Audio Coding 3
Расширение режима : CM (complete main)
Параметр Endianness формата : Big
Идентификатор кодека : A_AC3
Продолжительность : 1 ч. 36 м.
Вид битрейта : Постоянный
Битрейт : 384 Кбит/сек
Каналы : 6 каналов
Расположение каналов : Front: L C R, Side: L R, LFE
Частота : 48,0 КГц
Битовая глубина : 16 бит
Метод сжатия : С потерями
Размер потока : 264 Мбайт (4%)
Заголовок : AC3
Язык : English
Default : Нет
Forced : Нет

Аудио #3
Идентификатор : 4
Формат : DTS
Формат/Информация : Digital Theater Systems
Идентификатор кодека : A_DTS
Продолжительность : 1 ч. 36 м.
Вид битрейта : Постоянный
Битрейт : 1510 Кбит/сек
Каналы : 2 канала
Расположение каналов : Front: L R
Частота : 48,0 КГц
Битовая глубина : 24 бит
Метод сжатия : С потерями
Размер потока : 1,01 Гбайт (14%)
Заголовок : DTS
Язык : English
Default : Нет
Forced : Нет

Текст #1
Идентификатор : 5
Формат : UTF-8
Идентификатор кодека : S_TEXT/UTF8
Идентификатор кодека/Информация : UTF-8 Plain Text
Язык : Russian
Default : Нет
Forced : Нет

Текст #2
Идентификатор : 6
Формат : UTF-8
Идентификатор кодека : S_TEXT/UTF8
Идентификатор кодека/Информация : UTF-8 Plain Text
Язык : Ukrainian
Default : Нет
Forced : Нет

Текст #3
Идентификатор : 7
Формат : UTF-8
Идентификатор кодека : S_TEXT/UTF8
Идентификатор кодека/Информация : UTF-8 Plain Text
Язык : English
Default : Нет
Forced : Нет

Меню
00:00:00.000 : en:00:00:00.000
00:02:33.570 : en:00:02:33.570
00:05:32.666 : en:00:05:32.666
00:08:18.289 : en:00:08:18.289
00:10:26.668 : en:00:10:26.668
00:15:14.705 : en:00:15:14.705
00:19:04.352 : en:00:19:04.352
00:21:07.641 : en:00:21:07.641
00:23:48.010 : en:00:23:48.010
00:32:58.727 : en:00:32:58.727
00:34:52.132 : en:00:34:52.132
00:41:47.714 : en:00:41:47.714
00:46:51.475 : en:00:46:51.475
00:50:59.098 : en:00:50:59.098
00:53:06.892 : en:00:53:06.892
00:59:58.220 : en:00:59:58.220
01:05:44.691 : en:01:05:44.691
01:10:12.708 : en:01:10:12.708
01:12:46.946 : en:01:12:46.946
01:14:42.436 : en:01:14:42.436
01:20:27.698 : en:01:20:27.698
01:26:27.307 : en:01:26:27.307
01:28:32.766 : en:01:28:32.766
01:31:42.914 : en:01:31:42.914
Скриншоты:


Детали торрента:
Название:Только она единственная / She's the One (1996) [1080p] BDRip
Дата добавления:21 Апр 2012 16:39:14
Размер:7,07 GB
Раздают:1
Качают:0
Форум:Зарубежные Фильмы (HD, UHD-LQ)

All rights reserved © 2015-2018