TORRENTS43.COM

Скачать Stereotype - Vibrations LP (2012) [MP3|320 кб/с]<Drum and Bass>


Stereotype - Vibrations LP (2012)
Год: 2012
Жанр: Drum and Bass
Продолжительность: 01:18:28

Кодек: MP3
Битрейт: 320 кб/с
Тип битрейта: CBR

Трек лист:
01. Monarchy (07:00)
02. Elyptic (06:00)
03.Headliner (05:23)
04. Insekt (05:58)
05.Orbita (07:06)
06.Vibrations (05:20)
07. Hypnotic (06:13)
08. Falling (06:12)
09.Fireshot (06:01)
10. Strange Signal (05:18)
11. Lost Empire (06:33)
12. Xtc (06:06)
13. Chromium (Suicide vip) (06:38)

Отчёт Mediainfo:

Общее
Полное имя : C:\Users\Harkovchanin1968\Desktop\VA-Vibrations-DDLSALBUM001_LP-2012\00-va-vibrations-ddlsalbum001_lp-2012-vibrations_lp_artwork.jpg
Формат : JPEG
Размер файла : 297 Кбайт

Изображения
Формат : JPEG
Ширина : 600 пикселей
Высота : 600 пикселей
Субдискретизация насыщенности : 4:4:4
Битовая глубина : 8 бит
Метод сжатия : С потерями

Общее
Полное имя : C:\Users\Harkovchanin1968\Desktop\VA-Vibrations-DDLSALBUM001_LP-2012\00-va-vibrations-ddlsalbum001_lp-2012.m3u
Размер файла : 384 байт

Общее
Полное имя : C:\Users\Harkovchanin1968\Desktop\VA-Vibrations-DDLSALBUM001_LP-2012\00-va-vibrations-ddlsalbum001_lp-2012.nfo
Размер файла : 1,25 Кбайт

Общее
Полное имя : C:\Users\Harkovchanin1968\Desktop\VA-Vibrations-DDLSALBUM001_LP-2012\00-va-vibrations-ddlsalbum001_lp-2012.sfv
Размер файла : 1,62 Кбайт

Общее
Полное имя : C:\Users\Harkovchanin1968\Desktop\VA-Vibrations-DDLSALBUM001_LP-2012\01-stereotype-monarchy.mp3
Формат : MPEG Audio
Размер файла : 16,1 Мбайт
Продолжительность : 7 м. 0 с.
Режим общего битрейта : Постоянный
Общий поток : 320 Кбит/сек
Альбом : Vibrations
Трек : monarchy
Трек/Положение : 1
Исполнитель : Stereotype
Жанр : Drum & Bass
Дата записи : 2012
Библиотека кодирования : LAME3.98r

Аудио
Формат : MPEG Audio
Версия формата : Version 1
Профиль формата : Layer 3
Режим : Joint stereo
Продолжительность : 7 м. 1 с.
Вид битрейта : Постоянный
Битрейт : 320 Кбит/сек
Каналы : 2 канала
Частота : 44,1 КГц
Метод сжатия : С потерями
Размер потока : 16,1 Мбайт (100%)
Библиотека кодирования : LAME3.98r
Настройки программы : -m j -V 4 -q 3 -lowpass 20.5
Язык : English

Общее
Полное имя : C:\Users\Harkovchanin1968\Desktop\VA-Vibrations-DDLSALBUM001_LP-2012\02-stereotype-elyptic.mp3
Формат : MPEG Audio
Размер файла : 13,7 Мбайт
Продолжительность : 6 м. 0 с.
Режим общего битрейта : Постоянный
Общий поток : 320 Кбит/сек
Альбом : Vibrations
Трек : elyptic
Трек/Положение : 2
Исполнитель : Stereotype
Жанр : Drum & Bass
Дата записи : 2012
Библиотека кодирования : LAME3.98r

Аудио
Формат : MPEG Audio
Версия формата : Version 1
Профиль формата : Layer 3
Режим : Joint stereo
Продолжительность : 6 м. 0 с.
Вид битрейта : Постоянный
Битрейт : 320 Кбит/сек
Каналы : 2 канала
Частота : 44,1 КГц
Метод сжатия : С потерями
Размер потока : 13,7 Мбайт (100%)
Библиотека кодирования : LAME3.98r
Настройки программы : -m j -V 4 -q 3 -lowpass 20.5
Язык : English

Общее
Полное имя : C:\Users\Harkovchanin1968\Desktop\VA-Vibrations-DDLSALBUM001_LP-2012\03-stereotype-headliner.mp3
Формат : MPEG Audio
Размер файла : 12,4 Мбайт
Продолжительность : 5 м. 23 с.
Режим общего битрейта : Постоянный
Общий поток : 320 Кбит/сек
Альбом : Vibrations
Трек : headliner
Трек/Положение : 3
Исполнитель : Stereotype
Жанр : Drum & Bass
Дата записи : 2012
Библиотека кодирования : LAME3.98r

Аудио
Формат : MPEG Audio
Версия формата : Version 1
Профиль формата : Layer 3
Режим : Joint stereo
Расширение режима : MS Stereo
Продолжительность : 5 м. 23 с.
Вид битрейта : Постоянный
Битрейт : 320 Кбит/сек
Каналы : 2 канала
Частота : 44,1 КГц
Метод сжатия : С потерями
Размер потока : 12,3 Мбайт (100%)
Библиотека кодирования : LAME3.98r
Настройки программы : -m j -V 4 -q 3 -lowpass 20.5
Язык : English

Общее
Полное имя : C:\Users\Harkovchanin1968\Desktop\VA-Vibrations-DDLSALBUM001_LP-2012\04-stereotype-insekt.mp3
Формат : MPEG Audio
Размер файла : 13,7 Мбайт
Продолжительность : 5 м. 58 с.
Режим общего битрейта : Постоянный
Общий поток : 320 Кбит/сек
Альбом : Vibrations
Трек : insekt
Трек/Положение : 4
Исполнитель : Stereotype
Жанр : Drum & Bass
Дата записи : 2012
Библиотека кодирования : LAME3.98r

Аудио
Формат : MPEG Audio
Версия формата : Version 1
Профиль формата : Layer 3
Режим : Joint stereo
Расширение режима : MS Stereo
Продолжительность : 5 м. 59 с.
Вид битрейта : Постоянный
Битрейт : 320 Кбит/сек
Каналы : 2 канала
Частота : 44,1 КГц
Метод сжатия : С потерями
Размер потока : 13,7 Мбайт (100%)
Библиотека кодирования : LAME3.98r
Настройки программы : -m j -V 4 -q 3 -lowpass 20.5
Язык : English

Общее
Полное имя : C:\Users\Harkovchanin1968\Desktop\VA-Vibrations-DDLSALBUM001_LP-2012\05-stereotype-orbita.mp3
Формат : MPEG Audio
Размер файла : 16,3 Мбайт
Продолжительность : 7 м. 6 с.
Режим общего битрейта : Постоянный
Общий поток : 320 Кбит/сек
Альбом : Vibrations
Трек : orbita
Трек/Положение : 5
Исполнитель : Stereotype
Жанр : Drum & Bass
Дата записи : 2012
Библиотека кодирования : LAME3.98r

Аудио
Формат : MPEG Audio
Версия формата : Version 1
Профиль формата : Layer 3
Режим : Joint stereo
Продолжительность : 7 м. 6 с.
Вид битрейта : Постоянный
Битрейт : 320 Кбит/сек
Каналы : 2 канала
Частота : 44,1 КГц
Метод сжатия : С потерями
Размер потока : 16,3 Мбайт (100%)
Библиотека кодирования : LAME3.98r
Настройки программы : -m j -V 4 -q 3 -lowpass 20.5
Язык : English

Общее
Полное имя : C:\Users\Harkovchanin1968\Desktop\VA-Vibrations-DDLSALBUM001_LP-2012\06-stereotype-vibrations.mp3
Формат : MPEG Audio
Размер файла : 12,2 Мбайт
Продолжительность : 5 м. 19 с.
Режим общего битрейта : Постоянный
Общий поток : 320 Кбит/сек
Альбом : Vibrations
Трек : vibrations
Трек/Положение : 6
Исполнитель : Stereotype
Жанр : Drum & Bass
Дата записи : 2012
Библиотека кодирования : LAME3.98r

Аудио
Формат : MPEG Audio
Версия формата : Version 1
Профиль формата : Layer 3
Режим : Joint stereo
Продолжительность : 5 м. 19 с.
Вид битрейта : Постоянный
Битрейт : 320 Кбит/сек
Каналы : 2 канала
Частота : 44,1 КГц
Метод сжатия : С потерями
Размер потока : 12,2 Мбайт (100%)
Библиотека кодирования : LAME3.98r
Настройки программы : -m j -V 4 -q 3 -lowpass 20.5
Язык : English

Общее
Полное имя : C:\Users\Harkovchanin1968\Desktop\VA-Vibrations-DDLSALBUM001_LP-2012\07-stereotype-hypnotic.mp3
Формат : MPEG Audio
Размер файла : 14,3 Мбайт
Продолжительность : 6 м. 13 с.
Режим общего битрейта : Постоянный
Общий поток : 320 Кбит/сек
Альбом : Vibrations
Трек : hypnotic
Трек/Положение : 7
Исполнитель : Stereotype
Жанр : Drum & Bass
Дата записи : 2012
Библиотека кодирования : LAME3.98r

Аудио
Формат : MPEG Audio
Версия формата : Version 1
Профиль формата : Layer 3
Режим : Joint stereo
Продолжительность : 6 м. 14 с.
Вид битрейта : Постоянный
Битрейт : 320 Кбит/сек
Каналы : 2 канала
Частота : 44,1 КГц
Метод сжатия : С потерями
Размер потока : 14,3 Мбайт (100%)
Библиотека кодирования : LAME3.98r
Настройки программы : -m j -V 4 -q 3 -lowpass 20.5
Язык : English

Общее
Полное имя : C:\Users\Harkovchanin1968\Desktop\VA-Vibrations-DDLSALBUM001_LP-2012\08-stereotype-falling.mp3
Формат : MPEG Audio
Размер файла : 14,2 Мбайт
Продолжительность : 6 м. 11 с.
Режим общего битрейта : Постоянный
Общий поток : 320 Кбит/сек
Альбом : Vibrations
Трек : falling
Трек/Положение : 8
Исполнитель : Stereotype
Жанр : Drum & Bass
Дата записи : 2012
Библиотека кодирования : LAME3.98r

Аудио
Формат : MPEG Audio
Версия формата : Version 1
Профиль формата : Layer 3
Режим : Joint stereo
Продолжительность : 6 м. 12 с.
Вид битрейта : Постоянный
Битрейт : 320 Кбит/сек
Каналы : 2 канала
Частота : 44,1 КГц
Метод сжатия : С потерями
Размер потока : 14,2 Мбайт (100%)
Библиотека кодирования : LAME3.98r
Настройки программы : -m j -V 4 -q 3 -lowpass 20.5
Язык : English

Общее
Полное имя : C:\Users\Harkovchanin1968\Desktop\VA-Vibrations-DDLSALBUM001_LP-2012\09-stereotype-fireshot.mp3
Формат : MPEG Audio
Размер файла : 13,8 Мбайт
Продолжительность : 6 м. 1 с.
Режим общего битрейта : Постоянный
Общий поток : 320 Кбит/сек
Альбом : Vibrations
Трек : fireshot
Трек/Положение : 9
Исполнитель : Stereotype
Жанр : Drum & Bass
Дата записи : 2012

Аудио
Формат : MPEG Audio
Версия формата : Version 1
Профиль формата : Layer 3
Режим : Joint stereo
Продолжительность : 6 м. 1 с.
Вид битрейта : Постоянный
Битрейт : 320 Кбит/сек
Каналы : 2 канала
Частота : 44,1 КГц
Метод сжатия : С потерями
Размер потока : 13,8 Мбайт (100%)
Язык : English

Общее
Полное имя : C:\Users\Harkovchanin1968\Desktop\VA-Vibrations-DDLSALBUM001_LP-2012\10-stereotype-strange_signal.mp3
Формат : MPEG Audio
Размер файла : 12,1 Мбайт
Продолжительность : 5 м. 18 с.
Режим общего битрейта : Постоянный
Общий поток : 320 Кбит/сек
Альбом : Vibrations
Трек : strange signal
Трек/Положение : 10
Исполнитель : Stereotype
Жанр : Drum & Bass
Дата записи : 2012
Библиотека кодирования : LAME3.98r

Аудио
Формат : MPEG Audio
Версия формата : Version 1
Профиль формата : Layer 3
Режим : Joint stereo
Продолжительность : 5 м. 18 с.
Вид битрейта : Постоянный
Битрейт : 320 Кбит/сек
Каналы : 2 канала
Частота : 44,1 КГц
Метод сжатия : С потерями
Размер потока : 12,1 Мбайт (100%)
Библиотека кодирования : LAME3.98r
Настройки программы : -m j -V 4 -q 3 -lowpass 20.5
Язык : English

Общее
Полное имя : C:\Users\Harkovchanin1968\Desktop\VA-Vibrations-DDLSALBUM001_LP-2012\11-stereotype-lost_empire.mp3
Формат : MPEG Audio
Размер файла : 14,9 Мбайт
Продолжительность : 6 м. 30 с.
Режим общего битрейта : Постоянный
Общий поток : 320 Кбит/сек
Альбом : Vibrations
Трек : lost empire
Трек/Положение : 11
Исполнитель : Stereotype
Жанр : Drum & Bass
Дата записи : 2012
Библиотека кодирования : LAME3.98r

Аудио
Формат : MPEG Audio
Версия формата : Version 1
Профиль формата : Layer 3
Режим : Joint stereo
Продолжительность : 6 м. 31 с.
Вид битрейта : Постоянный
Битрейт : 320 Кбит/сек
Каналы : 2 канала
Частота : 44,1 КГц
Метод сжатия : С потерями
Размер потока : 14,9 Мбайт (100%)
Библиотека кодирования : LAME3.98r
Настройки программы : -m j -V 4 -q 3 -lowpass 20.5
Язык : English

Общее
Полное имя : C:\Users\Harkovchanin1968\Desktop\VA-Vibrations-DDLSALBUM001_LP-2012\12-stereotype-xtc.mp3
Формат : MPEG Audio
Размер файла : 13,7 Мбайт
Продолжительность : 6 м. 0 с.
Режим общего битрейта : Постоянный
Общий поток : 320 Кбит/сек
Альбом : Vibrations
Трек : xtc
Трек/Положение : 12
Исполнитель : Stereotype
Жанр : Drum & Bass
Дата записи : 2012
Библиотека кодирования : LAME3.98r

Аудио
Формат : MPEG Audio
Версия формата : Version 1
Профиль формата : Layer 3
Режим : Joint stereo
Продолжительность : 6 м. 0 с.
Вид битрейта : Постоянный
Битрейт : 320 Кбит/сек
Каналы : 2 канала
Частота : 44,1 КГц
Метод сжатия : С потерями
Размер потока : 13,7 Мбайт (100%)
Библиотека кодирования : LAME3.98r
Настройки программы : -m j -V 4 -q 3 -lowpass 20.5
Язык : English

Общее
Полное имя : C:\Users\Harkovchanin1968\Desktop\VA-Vibrations-DDLSALBUM001_LP-2012\13-suicide_and_sfs-chromium_(suicide_vip).mp3
Формат : MPEG Audio
Размер файла : 15,2 Мбайт
Продолжительность : 6 м. 38 с.
Режим общего битрейта : Постоянный
Общий поток : 320 Кбит/сек
Альбом : Vibrations
Трек : chromium (suicide vip)
Трек/Положение : 13
Исполнитель : Suicide & SFS
Жанр : Drum & Bass
Дата записи : 2012
Библиотека кодирования : LAME3.98r

Аудио
Формат : MPEG Audio
Версия формата : Version 1
Профиль формата : Layer 3
Режим : Joint stereo
Продолжительность : 6 м. 38 с.
Вид битрейта : Постоянный
Битрейт : 320 Кбит/сек
Каналы : 2 канала
Частота : 44,1 КГц
Метод сжатия : С потерями
Размер потока : 15,2 Мбайт (100%)
Библиотека кодирования : LAME3.98r
Настройки программы : -m j -V 4 -q 3 -lowpass 20.5
Язык : English

Дополнительно:

Label: Deadlines
Catalog#: DDLSALBUM001
Source: WEB, Album
Release date: 30-04-2012
Детали торрента:
Название:Stereotype - Vibrations LP (2012) [MP3|320 кб/с]<Drum and Bass>
Дата добавления:30 Апр 2012 18:54:34
Размер:183 MB
Раздают:1
Качают:0
Форум:Drum'n'Bass, Jungle, Breaks, Breakbeat, Dubstep

All rights reserved © 2015-2018