TORRENTS43.COM

Скачать Париж / Paris (2008) [1080p] BDRemux


Париж / Paris (2008) BDRemux
Русское название: Париж
Оригинальное название: Paris
Год выпуска: 2008
Жанр: Драма, Мелодрама, Комедия

Описание фильма:
Париж - город любви, город свободы, город беспечной жизни. Каждый мечтает хоть раз в жизни увидеть Эйфелеву башню или отведать свежих круассанов на берегу Сены. Легкость французской столицы притягивает людей со всего света. Но для своих жителей город поворачивается и другой стороной.

Одинокая мать троих детей постоянно спорит со своим нелюдимым братом. Уважаемый профессор истории борется с собственными чувствами к юной студентке. А хозяйка булочной отчаивается в безнадежных попытках найти себе подсобного работника. Все эти маленькие истории делают Париж городом, который и любят, и ненавидят. Да, именно такой он - Париж...


Режиссер: Седрик Клапиш
Актеры: Жюльет Бинош, Ромен Дюри, Фабрис Лукини, Альбер Дюпонтель, Мелани Лоран, Франсуа Клюзе, Карин Виар, Жиль Леллуш, Зинедин Суалем, Жюли Ферье

Продолжительность: 02:09:22
Перевод: Многоголосый закадровый
Язык субтитров: Русский, Английский, Английский (SDH)


ВИДЕО:
Видеокодек: MPEG-4 AVC/H.264
Битрейт видео: ~30,2 Mbps
Размер кадра: 1920 х 1080
Качество видео: BDRemux
ЗВУК:
Аудио 1: Русский, AC3 5.1, 448 kbps, 48 kHz
Аудио 2: Французский, DTS-HD MA 5.1, 4293 kbps, 48 kHz
Сэмпл: Ссылка

MediaInfo:

Общее
Уникальный идентификатор : 241445477870577033594371036952872677061 (0xB5A4B523C086660FAD688200382CEEC5)
Полное имя : Paris.2008.1080p.BDRemux.mkv
Формат : Matroska
Версия формата : Version 2
Размер файла : 29,7 Гбайт
Продолжительность : 2 ч. 9 м.
Режим общего битрейта : Переменный
Общий поток : 32,8 Мбит/сек
Дата кодирования : UTC 2012-05-13 17:59:04
Программа кодирования : mkvmerge v5.2.0 ('I can't explain') built on Dec 18 2011 18:12:03
Библиотека кодирования : libebml v1.2.3 + libmatroska v1.3.0

Видео
Идентификатор : 1
Формат : AVC
Формат/Информация : Advanced Video Codec
Профиль формата : High@L4.1
Параметр CABAC формата : Да
Параметр ReFrames формата : 4 кадра
Идентификатор кодека : V_MPEG4/ISO/AVC
Продолжительность : 2 ч. 9 м.
Вид битрейта : Переменный
Битрейт : 30,2 Мбит/сек
Максимальный битрейт : 37,0 Мбит/сек
Ширина : 1920 пикселей
Высота : 1080 пикселей
Соотношение сторон : 16:9
Частота кадров : 23,976 кадра/сек
Стандарт вещания : NTSC
Цветовое пространство : YUV
Субдискретизация насыщенности : 4:2:0
Битовая глубина : 8 бит
Тип развёртки : Прогрессивная
Бит/(Пиксели*Кадры) : 0.607
Размер потока : 27,3 Гбайт (92%)
Язык : English
Default : Да
Forced : Нет
Основные цвета : BT.709-5, BT.1361, IEC 61966-2-4, SMPTE RP177
Характеристики трансфера : BT.709-5, BT.1361
Коэффициенты матрицы : BT.709-5, BT.1361, IEC 61966-2-4 709, SMPTE RP177

Аудио #1
Идентификатор : 2
Формат : AC-3
Формат/Информация : Audio Coding 3
Расширение режима : CM (complete main)
Идентификатор кодека : A_AC3
Продолжительность : 2 ч. 9 м.
Вид битрейта : Постоянный
Битрейт : 448 Кбит/сек
Каналы : 6 каналов
Расположение каналов : Front: L C R, Side: L R, LFE
Частота : 48,0 КГц
Битовая глубина : 16 бит
Метод сжатия : С потерями
Размер потока : 415 Мбайт (1%)
Заголовок : MVO
Язык : Russian
Default : Да
Forced : Нет

Аудио #2
Идентификатор : 3
Формат : DTS
Формат/Информация : Digital Theater Systems
Профиль формата : MA / Core
Идентификатор кодека : A_DTS
Продолжительность : 2 ч. 9 м.
Вид битрейта : Переменный
Битрейт : 1561 Кбит/сек / 1510 Кбит/сек
Каналы : 6 каналов
Расположение каналов : Front: L C R, Side: L R, LFE
Частота : 48,0 КГц
Битовая глубина : 24 бит
Метод сжатия : Без потерь / Lossy
Язык : French
Default : Нет
Forced : Нет

Текст #1
Идентификатор : 4
Формат : UTF-8
Идентификатор кодека : S_TEXT/UTF8
Идентификатор кодека/Информация : UTF-8 Plain Text
Язык : Russian
Default : Нет
Forced : Нет

Текст #2
Идентификатор : 5
Формат : UTF-8
Идентификатор кодека : S_TEXT/UTF8
Идентификатор кодека/Информация : UTF-8 Plain Text
Язык : English
Default : Нет
Forced : Нет

Текст #3
Идентификатор : 6
Формат : UTF-8
Идентификатор кодека : S_TEXT/UTF8
Идентификатор кодека/Информация : UTF-8 Plain Text
Заголовок : SDH
Язык : English
Default : Нет
Forced : Нет

Меню
00:00:00.000 : en:Chapter 00
00:04:27.767 : en:Chapter 01
00:09:01.582 : en:Chapter 02
00:15:38.270 : en:Chapter 03
00:21:15.983 : en:Chapter 04
00:26:37.971 : en:Chapter 05
00:32:36.412 : en:Chapter 06
00:39:25.696 : en:Chapter 07
00:46:22.529 : en:Chapter 08
00:51:37.803 : en:Chapter 09
00:58:52.195 : en:Chapter 10
01:04:29.031 : en:Chapter 11
01:11:36.792 : en:Chapter 12
01:17:05.704 : en:Chapter 13
01:22:20.936 : en:Chapter 14
01:27:45.802 : en:Chapter 15
01:32:38.344 : en:Chapter 16
01:38:07.798 : en:Chapter 17
01:45:24.276 : en:Chapter 18
01:50:07.934 : en:Chapter 19
01:54:35.910 : en:Chapter 20
01:59:19.110 : en:Chapter 21
02:02:56.285 : en:Chapter 22

Скриншоты:



За исходник спасибо:

Смотреть Online

http://moonwalk.cc/video/5b3469b1a451d721/iframe
Детали торрента:
Название:Париж / Paris (2008) [1080p] BDRemux
Дата добавления:14 Май 2012 05:38:06
Размер:29,7 GB
Раздают:
Качают:0
Форум:Зарубежные Фильмы (HD, UHD-LQ)

All rights reserved © 2015-2018