TORRENTS43.COM

Скачать Последнее путешествие Синдбада (2007) DVDRip [12]


Последнее путешествие Синдбада (2007) DVDRip [12]
Русское название: Последнее путешествие Синдбада
Год выпуска: 2007
Жанр: Боевик, Приключения


Дата российской премьеры: 12.11.2007
Дата выхода DVD/Blu-Ray релиза: 13.04.2010

Режиссер: Егор Абросимов
Актеры: Андрей Смелов, Эдуард Трухменёв, Татьяна Аптикеева, Габриеле Барткуте, Алексей Осипов, Дмитрий Мухамадеев, Ульяна Похлебаева, Игорь Челноков, Владимир Артемов, Алексей Васильев

Описание фильма:
Приключенческий сериал о путешествии восточного героя — храброго рыцаря наших дней. Он силен, хитер и отважен. Благородство у него в крови, смелость — его верная спутница, которая помогает не пасовать даже перед лицом смерти. Не понаслышке зная цену преданности и любви, он соглашается выполнить задание бизнесмена Михаила Баринова — найти его возлюбленную, которая уехала работать в одну из клиник Туниса и пропала.

Продолжительность: 12 серий по 00:45:00
Качество видео: DVDRip

Видеокодек: Xvid
Битрейт видео: ~1200 kbps
Размер кадра: 688x384
Аудиокодек: AC3
Битрейт аудио: 192 kbps

Скриншоты:

MediaInfo

Video
ID : 0
Format : MPEG-4 Visual
Format profile : Advanced Simple@L5
Format settings, BVOP : Yes
Format settings, QPel : No
Format settings, GMC : No warppoints
Format settings, Matrix : Default (MPEG)
Muxing mode : Packed bitstream
Codec ID : XVID
Codec ID/Hint : XviD
Duration : 47mn 47s
Bit rate : 1 258 Kbps
Width : 688 pixels
Height : 384 pixels
Display aspect ratio : 16/9
Frame rate : 25.000 fps
Resolution : 24 bits
Colorimetry : 4:2:0
Scan type : Progressive
Bits/(Pixel*Frame) : 0.190
Stream size : 430 MiB (86%)
Writing library : XviD 1.2.0.dev47 (UTC 2006-11-01)

Audio
ID : 1
Format : AC-3
Format/Info : Audio Coding 3
Codec ID : 2000
Duration : 47mn 47s
Bit rate mode : Constant
Bit rate : 192 Kbps
Channel(s) : 2 channels
Channel positions : L R
Sampling rate : 48.0 KHz
Stream size : 65.6 MiB (13%)
Alignment : Split accross interleaves
Interleave, duration : 40 ms (1.00 video frame)
Interleave, preload duration : 500 ms

Смотреть Online

http://moonwalk.cc/serial/3b8bc9e5b4531464cc8b67be10eaa91e/iframe
Детали торрента:
Название:Последнее путешествие Синдбада (2007) DVDRip [12]
Дата добавления:15 Май 2012 14:10:56
Размер:5,85 GB
Раздают:3
Качают:0
Форум:Отечественные сериалы

All rights reserved © 2015-2018