TORRENTS43.COM

Скачать ВИА Ялла - 4 альбома (1982 - 2008) [FLAC|Lossless]<Retro, Эстрада, Pop>


ВИА Ялла - 4 альбома
Описание:
Год: 1982 - 2008
Продолжительность: 03:23:18
Жанр: Retro, Эстрада, Pop

Кодек: FLAC
Битрейт: Lossless

Треклист:
1982 - Три колодца
1983 - Лицо возлюбленной моей
2003 - Grand Collection
2008 - Ялла

Ялла - вокально-инструментальный ансамбль под управлением Фарруха Закирова, созданный в Ташкенте в 1970 году.
Альбомы:

1982 - Три колодца

Три колодца

Image
Продолжительность: 00:35:27
Треклист:
01. Три колодца(Ф. Закиров - Ю. Энтин) (4:49)
02. Солнце (Э. Салихов - Ю. Энтин) (2:44)
03. Нет красивей (Ф. Закиров - Махтумкули , русский текст О. Шенгели) (3:41)
04. Это любовь (А. Рыбников - Р. Тагор , русский текст А. Адалиса) (6:11)
05. Песенка Насреддина (Музыка народная - С. Тилла) (3:00)
06. Ялла (Ф. Закиров - А. Пулат) (4:40)
07. Беспечная красавица (Ф. Закиров - А. Арипов , русский текст О. Дмитриева ... (4:45)
08. Позвола меня дорога (Ф. Закиров - А. Арипов , русский текст А. Преловского) (5:37)

Отчёт Media Info

Код:

Общее
Полное имя                       : D:\Music\Ялла\1982 - Три колодца\Ялла  -  Три колодца.cue
Размер файла                     : 1,37 Кбайт

Общее
Полное имя                       : D:\Music\Ялла\1982 - Три колодца\Ялла  -  Три колодца.flac
Формат                           : FLAC
Формат/Информация                : Free Lossless Audio Codec
Размер файла                     : 242 Мбайт
Продолжительность                : 35 м.
Режим общего битрейта            : Переменный
Общий поток                      : 953 Кбит/сек
Альбом                           : "Три колодца"
Альбом/Исполнитель               : ВИА"Ялла"
Исполнитель                      : ВИА"Ялла"
Жанр                             : Ретро
Дата записи                      : 1982
Программа кодирования            : Easy CD-DA Extractor (http://www.poikosoft.com)

Аудио
Формат                           : FLAC
Формат/Информация                : Free Lossless Audio Codec
Продолжительность                : 35 м.
Вид битрейта                     : Переменный
Битрейт                          : 953 Кбит/сек
Каналы                           : 2 канала
Частота                          : 44,1 КГц
Битовая глубина                  : 16 бит
Размер потока                    : 242 Мбайт (100%)
Библиотека кодирования           : libFLAC 1.2.0 (UTC 2007-07-15)

Общее
Полное имя                       : D:\Music\Ялла\1982 - Три колодца\Ялла  -  Три колодца.log
Размер файла                     : 2,27 Кбайт

Отчёт EAC

Код:
Exact Audio Copy V0.99 prebeta 3 from 28. July 2007

Отчёт EAC об извлечении, выполненном 10. марта 2008, 10:50

ВИА"Ялла" / "Три колодца" [LP] Мелодия

Дисковод: PIONEER DVD-RW  DVR-110D   Adapter: 6  ID: 0

Режим чтения                 : Достоверность
Использование точного потока : Да
Отключение кэша аудио        : Да
Использование указателей C2  : Нет

Коррекция смещения при чтении                     : 48
Способность читать области Lead-in и Lead-out     : Нет
Заполнение пропущенных сэмплов тишиной            : Да
Удаление блоков с тишиной в начале и конце        : Нет
При вычислениях CRC использовались нулевые сэмплы : Нет
Интерфейс                                         : Встроенный Win32-интерфейс для Win NT/2000

Выходной формат : Внутренние WAV-операции
Формат сэмплов  : 44.100 Гц; 16 бит; стерео

TOC извлечённого CD

     Трек |   Старт  | Длительность | Начальный сектор | Конечный сектор
    ---------------------------------------------------------------------
       1  |  0:00.00 |    4:49.28   |           0      |      21702
       2  |  4:49.28 |    2:44.00   |       21703      |      34002
       3  |  7:33.28 |    3:40.39   |       34003      |      50541
       4  | 11:13.67 |    6:11.08   |       50542      |      78374
       5  | 17:25.00 |    2:59.60   |       78375      |      91859
       6  | 20:24.60 |    4:40.15   |       91860      |     112874
       7  | 25:05.00 |    4:44.47   |      112875      |     134221
       8  | 29:49.47 |    5:37.30   |      134222      |     159526

Характеристики диапазона извлечения и сообщения об ошибках

Выбранный диапазон

     Имя файла L:\МУЗЫКА\RETRO-001\VIA Jalla-1982-Tri kolodca [LP] Стерео С60-16641-2\ВИА Ялла  -  Три колодца  [LP] Мелодия С60-16641-42.wav

     Пиковый уровень 100.0 %
     Качество диапазона 100.0 %
     CRC теста 00621BCE
     CRC копии 00621BCE
     Копирование... OK

Ошибок не произошло

AccurateRip: сводка

Трек  1  нет в базе данных
Трек  2  нет в базе данных
Трек  3  нет в базе данных
Трек  4  нет в базе данных
Трек  5  нет в базе данных
Трек  6  нет в базе данных
Трек  7  нет в базе данных
Трек  8  нет в базе данных

Ни одного трека нет в базе AccurateRip

Конец отчёта

Отчёт auCDtect

Код:
-----------------------

DON'T MODIFY THIS FILE

-----------------------

PERFORMER: auCDtect Task Manager, ver. 1.5.1RC6 build 1.5.1.7
Copyright (c) 2008-2010 y-soft. All rights reserved
http://y-soft.org

ANALYZER: auCDtect: CD records authenticity detector, version 0.8.2
Copyright (c) 2004 Oleg Berngardt. All rights reserved.
Copyright (c) 2004 Alexander Djourik. All rights reserved.

FILE: Ялла  -  Три колодца.flac
  Size: 253491653 Hash: 9789957FFA4860BDC5213C3A4E3F4987 Accuracy: -m0
  Conclusion: CDDA 100%
  Signature: D4A83083B28BB136231CE24125EAE24B8F6262C6

1983 - Лицо возлюбленной моей

Лицо возлюбленной моей

Image
Продолжительность: 00:35:35
Треклист:
01. Касыда на приход весны(Ф.Янов-Яновский-Рудаки,перевод С.Липкина) (5:30)
02. Рубаи (Ф.Закиров-О.Хайям) (5:16)
03. Газель(Ф.Закиров-А.Навои,перевод С.Иванова) (6:41)
04. Последняя поэма(А.Рыбников-Р.Тагор,перевод А.Адалиса) (5:54)
05. Нет красивей(Ф.Закиров-Махтумкули,перевод Г.Шенгели) (3:25)
06. Несравненная(А.Алиев-А. Х.Дехлеви перевод Д.Седых) (3:47)
07. Кто рассеет мрак(Д.Саидаминова-Н.Хикмет,перевод л.Мартынова) (5:02)

Отчёт Media Info

Код:
Общее
Полное имя                       : D:\Music\Ялла\1983 - Лицо возлюбленной моей\Ялла  -  Лицо возлюбленной моей.cue
Размер файла                     : 1,19 Кбайт

Общее
Полное имя                       : D:\Music\Ялла\1983 - Лицо возлюбленной моей\Ялла  -  Лицо возлюбленной моей.flac
Формат                           : FLAC
Формат/Информация                : Free Lossless Audio Codec
Размер файла                     : 234 Мбайт
Продолжительность                : 35 м.
Режим общего битрейта            : Переменный
Общий поток                      : 918 Кбит/сек
Альбом                           : "Лицо возлюбленной моей"
Альбом/Исполнитель               : ВИА"Ялла"
Исполнитель                      : ВИА"Ялла"
Кодирование произвёл             : STOJAK
Жанр                             : Retro
Дата записи                      : 1983
Программа кодирования            : Easy CD-DA Extractor (http://www.poikosoft.com)

Аудио
Формат                           : FLAC
Формат/Информация                : Free Lossless Audio Codec
Продолжительность                : 35 м.
Вид битрейта                     : Переменный
Битрейт                          : 917 Кбит/сек
Каналы                           : 2 канала
Частота                          : 44,1 КГц
Битовая глубина                  : 16 бит
Размер потока                    : 234 Мбайт (100%)
Библиотека кодирования           : libFLAC 1.2.0 (UTC 2007-07-15)

Общее
Полное имя                       : D:\Music\Ялла\1983 - Лицо возлюбленной моей\Ялла  -  Лицо возлюбленной моей.log
Размер файла                     : 2,17 Кбайт

Отчёт EAC

Код:
Exact Audio Copy V0.99 prebeta 3 from 28. July 2007

Отчёт EAC об извлечении, выполненном 2. марта 2008, 13:42

ВИА"ЯЛЛА" / "Лицо возлюбленной моей"

Дисковод: PIONEER DVD-RW  DVR-110D   Adapter: 6  ID: 0

Режим чтения                 : Достоверность
Использование точного потока : Да
Отключение кэша аудио        : Да
Использование указателей C2  : Нет

Коррекция смещения при чтении                     : 48
Способность читать области Lead-in и Lead-out     : Нет
Заполнение пропущенных сэмплов тишиной            : Да
Удаление блоков с тишиной в начале и конце        : Нет
При вычислениях CRC использовались нулевые сэмплы : Нет
Интерфейс                                         : Встроенный Win32-интерфейс для Win NT/2000

Выходной формат : Внутренние WAV-операции
Формат сэмплов  : 44.100 Гц; 16 бит; стерео

TOC извлечённого CD

     Трек |   Старт  | Длительность | Начальный сектор | Конечный сектор
    ---------------------------------------------------------------------
       1  |  0:00.00 |    5:30.22   |           0      |      24771
       2  |  5:30.22 |    5:16.22   |       24772      |      48493
       3  | 10:46.44 |    6:41.15   |       48494      |      78583
       4  | 17:27.59 |    5:54.01   |       78584      |     105134
       5  | 23:21.60 |    3:25.15   |      105135      |     120524
       6  | 26:47.00 |    3:47.06   |      120525      |     137555
       7  | 30:34.06 |    5:01.51   |      137556      |     160181

Характеристики диапазона извлечения и сообщения об ошибках

Выбранный диапазон

     Имя файла L:\МУЗЫКА\RETRO-001\VIA Jalla-1983-Lico vozlublennoy moey... [LP] Стерео С60-20135-36 000\ВИА ЯЛЛА  -  Лицо возлюбленной моей.wav

     Пиковый уровень 100.0 %
     Качество диапазона 100.0 %
     CRC теста 441D0C70
     CRC копии 441D0C70
     Копирование... OK

Ошибок не произошло

AccurateRip: сводка

Трек  1  нет в базе данных
Трек  2  нет в базе данных
Трек  3  нет в базе данных
Трек  4  нет в базе данных
Трек  5  нет в базе данных
Трек  6  нет в базе данных
Трек  7  нет в базе данных

Ни одного трека нет в базе AccurateRip

Конец отчёта

Отчёт auCDtect

Код:
-----------------------

DON'T MODIFY THIS FILE

-----------------------

PERFORMER: auCDtect Task Manager, ver. 1.5.1RC6 build 1.5.1.7
Copyright (c) 2008-2010 y-soft. All rights reserved
http://y-soft.org

ANALYZER: auCDtect: CD records authenticity detector, version 0.8.2
Copyright (c) 2004 Oleg Berngardt. All rights reserved.
Copyright (c) 2004 Alexander Djourik. All rights reserved.

FILE: Ялла  -  Лицо возлюбленной моей.flac
  Size: 245077631 Hash: C93415B083034CDE1DCFAD04122A7AE9 Accuracy: -m0
  Conclusion: CDDA 100%
  Signature: F1DC7E2DDDF71CA46EB4ABE188FEE93138B137DD

2003 - Grand Collection

Grand Collection

Image
Продолжительность: 01:09:25
Треклист:
01. Шахрисабз (3:47)
02. Лицо возлюбленной моей (3:35)
03. Уч кудук (4:29)
04. Музыкальная чайхана (3:49)
05. Голубые колокола Самарканда (3:58)
06. Последняя поэма (2:53)
07. Любимые глаза (3:49)
08. Караван (4:23)
09. Азия (4:23)
10. Эмина (3:36)
11. Без любимых глаз (3:36)
12. Жиннуний (3:56)
13. Южный человек (4:25)
14. Позовёт дорога (6:04)
15. Помни меня (4:30)
16. Воспоминания юности (4:51)
17. Раъно (3:22)

Отчёт Media Info

Код:
Общее
Полное имя                       : D:\Music\Ялла\2003 - Grand Collection\Ялла - Grand Collection.cue
Размер файла                     : 2,02 Кбайт

Общее
Полное имя                       : D:\Music\Ялла\2003 - Grand Collection\Ялла - Grand Collection.flac
Формат                           : FLAC
Формат/Информация                : Free Lossless Audio Codec
Размер файла                     : 489 Мбайт
Продолжительность                : 1 ч. 9 м.
Режим общего битрейта            : Переменный
Общий поток                      : 985 Кбит/сек
Альбом                           : Grand Collection.
Исполнитель                      : Ялла
Жанр                             : Ретро
Дата записи                      : 2003
Программа кодирования            : Easy CD-DA Extractor (http://www.poikosoft.com)

Аудио
Формат                           : FLAC
Формат/Информация                : Free Lossless Audio Codec
Продолжительность                : 1 ч. 9 м.
Вид битрейта                     : Переменный
Битрейт                          : 985 Кбит/сек
Каналы                           : 2 канала
Частота                          : 44,1 КГц
Битовая глубина                  : 16 бит
Размер потока                    : 489 Мбайт (100%)
Библиотека кодирования           : libFLAC 1.2.0 (UTC 2007-07-15)

Общее
Полное имя                       : D:\Music\Ялла\2003 - Grand Collection\Ялла - Grand Collection.log
Размер файла                     : 3,08 Кбайт

Отчёт EAC

Код:
Exact Audio Copy V0.99 prebeta 3 from 28. July 2007

Отчёт EAC об извлечении, выполненном 15. января 2008, 16:07

Ялла / Grand Collection

Дисковод: _NEC    DVD_RW ND-3520AW   Adapter: 1  ID: 2

Режим чтения                 : Достоверность
Использование точного потока : Да
Отключение кэша аудио        : Да
Использование указателей C2  : Нет

Коррекция смещения при чтении                     : 48
Способность читать области Lead-in и Lead-out     : Нет
Заполнение пропущенных сэмплов тишиной            : Да
Удаление блоков с тишиной в начале и конце        : Нет
При вычислениях CRC использовались нулевые сэмплы : Да
Интерфейс                                         : Встроенный Win32-интерфейс для Win NT/2000

Выходной формат : Внутренние WAV-операции
Формат сэмплов  : 44.100 Гц; 16 бит; стерео

TOC извлечённого CD

     Трек |   Старт  | Длительность | Начальный сектор | Конечный сектор
    ---------------------------------------------------------------------
       1  |  0:00.00 |    3:46.60   |           0      |      17009
       2  |  3:46.60 |    3:34.50   |       17010      |      33109
       3  |  7:21.35 |    4:29.04   |       33110      |      53288
       4  | 11:50.39 |    3:49.16   |       53289      |      70479
       5  | 15:39.55 |    3:58.31   |       70480      |      88360
       6  | 19:38.11 |    2:52.43   |       88361      |     101303
       7  | 22:30.54 |    3:48.70   |      101304      |     118473
       8  | 26:19.49 |    4:23.35   |      118474      |     138233
       9  | 30:43.09 |    4:23.13   |      138234      |     157971
      10  | 35:06.22 |    3:36.03   |      157972      |     174174
      11  | 38:42.25 |    3:35.64   |      174175      |     190363
      12  | 42:18.14 |    3:55.58   |      190364      |     208046
      13  | 46:13.72 |    4:24.48   |      208047      |     227894
      14  | 50:38.45 |    6:04.03   |      227895      |     255197
      15  | 56:42.48 |    4:29.47   |      255198      |     275419
      16  | 61:12.20 |    4:50.60   |      275420      |     297229
      17  | 66:03.05 |    3:22.00   |      297230      |     312379

Характеристики диапазона извлечения и сообщения об ошибках

Выбранный диапазон

     Имя файла E:\Music Lossless\Ялла - Grand Collection (2003)\Ялла - Grand Collection.wav

     Пиковый уровень 99.5 %
     Качество диапазона 99.9 %
     CRC копии 95022870
     Копирование... OK

Ошибок не произошло

AccurateRip: сводка

Трек  1  нет в базе данных
Трек  2  нет в базе данных
Трек  3  нет в базе данных
Трек  4  нет в базе данных
Трек  5  нет в базе данных
Трек  6  нет в базе данных
Трек  7  нет в базе данных
Трек  8  нет в базе данных
Трек  9  нет в базе данных
Трек 10  нет в базе данных
Трек 11  нет в базе данных
Трек 12  нет в базе данных
Трек 13  нет в базе данных
Трек 14  нет в базе данных
Трек 15  нет в базе данных
Трек 16  нет в базе данных
Трек 17  нет в базе данных

Ни одного трека нет в базе AccurateRip

Конец отчёта

Отчёт auCDtect

Код:
-----------------------

DON'T MODIFY THIS FILE

-----------------------

PERFORMER: auCDtect Task Manager, ver. 1.5.1RC6 build 1.5.1.7
Copyright (c) 2008-2010 y-soft. All rights reserved
http://y-soft.org

ANALYZER: auCDtect: CD records authenticity detector, version 0.8.2
Copyright (c) 2004 Oleg Berngardt. All rights reserved.
Copyright (c) 2004 Alexander Djourik. All rights reserved.

FILE: Ялла - Grand Collection.flac
  Size: 512779678 Hash: C34D0F663E39E8886B9E3D8149EDEB0B Accuracy: -m0
  Conclusion: CDDA 92%
  Signature: 5E966CBEA473968505933B30B20A0D3C9416127B

2008 - Ялла

Ялла

Image
Продолжительность: 01:02:51
Треклист:
01. Три Колодца (4:48)
02. Нет Красивей (3:28)
03. Солнце (2:39)
04. Последняя Поэма (Первая Версия 1981 Год) (6:01)
05. Ёрим Кетаман Дейди (Песенка Насретдина) (2:51)
06. Беспечная Красавица (4:35)
07. Позвала Меня Дорога (5:30)
08. Рубаи (5:28)
09. Газель (6:57)
10. Касыда На Приход Весны (5:37)
11. Кто Рассеет Мрак (5:11)
12. Несравненная (3:53)
13. Последняя Поэма (Вторая Версия 1983 Год) (5:55)

Отчёт Media Info

Код:
Общее
Полное имя                       : D:\Music\Ялла\2008 - Ялла\Ялла - Ялла.cue
Размер файла                     : 1,56 Кбайт

Общее
Полное имя                       : D:\Music\Ялла\2008 - Ялла\Ялла - Ялла.flac
Формат                           : FLAC
Формат/Информация                : Free Lossless Audio Codec
Размер файла                     : 368 Мбайт
Продолжительность                : 1 ч. 2 м.
Режим общего битрейта            : Переменный
Общий поток                      : 820 Кбит/сек
Альбом                           : Ялла
Альбом/Исполнитель               : Ялла
Исполнитель                      : Ялла
Жанр                             : Ретро
Дата записи                      : 2008
Программа кодирования            : Easy CD-DA Extractor (http://www.poikosoft.com)

Аудио
Формат                           : FLAC
Формат/Информация                : Free Lossless Audio Codec
Продолжительность                : 1 ч. 2 м.
Вид битрейта                     : Переменный
Битрейт                          : 820 Кбит/сек
Каналы                           : 2 канала
Частота                          : 44,1 КГц
Битовая глубина                  : 16 бит
Размер потока                    : 368 Мбайт (100%)
Библиотека кодирования           : libFLAC 1.2.0 (UTC 2007-07-15)

Общее
Полное имя                       : D:\Music\Ялла\2008 - Ялла\Ялла - Ялла.log
Размер файла                     : 2,54 Кбайт

Отчёт EAC

Код:
Exact Audio Copy V0.99 prebeta 4 from 23. January 2008

EAC extraction logfile from 30. November 2009, 16:35

Ялла  / ВИА Ялла

Used drive  : _NEC    DVD_RW ND-3520AW   Adapter: 0  ID: 0

Read mode               : Secure
Utilize accurate stream : Yes
Defeat audio cache      : Yes
Make use of C2 pointers : No

Read offset correction                      : 48
Overread into Lead-In and Lead-Out          : No
Fill up missing offset samples with silence : Yes
Delete leading and trailing silent blocks   : No
Null samples used in CRC calculations       : Yes
Used interface                              : Native Win32 interface for Win NT & 2000

Used output format : Internal WAV Routines
Sample format      : 44.100 Hz; 16 Bit; Stereo

TOC of the extracted CD

     Track |   Start  |  Length  | Start sector | End sector
    ---------------------------------------------------------
        1  |  0:00.00 |  4:47.46 |         0    |    21570
        2  |  4:47.46 |  3:27.65 |     21571    |    37160
        3  |  8:15.36 |  2:38.66 |     37161    |    49076
        4  | 10:54.27 |  6:00.62 |     49077    |    76138
        5  | 16:55.14 |  2:50.68 |     76139    |    88956
        6  | 19:46.07 |  4:34.49 |     88957    |   109555
        7  | 24:20.56 |  5:29.72 |    109556    |   134302
        8  | 29:50.53 |  5:27.70 |    134303    |   158897
        9  | 35:18.48 |  6:56.67 |    158898    |   190164
       10  | 42:15.40 |  5:36.60 |    190165    |   215424
       11  | 47:52.25 |  5:10.72 |    215425    |   238746
       12  | 53:03.22 |  3:52.58 |    238747    |   256204
       13  | 56:56.05 |  5:54.43 |    256205    |   282797

Range status and errors

Selected range

     Filename F:\Music Lossless\Yalla - VIA Yalla (2008 Melodiya MEL CD 60 01560)\Yalla - VIA Yalla.wav

     Peak level 100.0 %
     Range quality 100.0 %
     Test CRC CB5BA936
     Copy CRC CB5BA936
     Copy OK

No errors occurred

AccurateRip summary

Track  1  not present in database
Track  2  not present in database
Track  3  not present in database
Track  4  not present in database
Track  5  not present in database
Track  6  not present in database
Track  7  not present in database
Track  8  not present in database
Track  9  not present in database
Track 10  not present in database
Track 11  not present in database
Track 12  not present in database
Track 13  not present in database

None of the tracks are present in the AccurateRip database

End of status report

Отчёт auCDtect

Код:
-----------------------

DON'T MODIFY THIS FILE

-----------------------

PERFORMER: auCDtect Task Manager, ver. 1.5.1RC6 build 1.5.1.7
Copyright (c) 2008-2010 y-soft. All rights reserved
http://y-soft.org

ANALYZER: auCDtect: CD records authenticity detector, version 0.8.2
Copyright (c) 2004 Oleg Berngardt. All rights reserved.
Copyright (c) 2004 Alexander Djourik. All rights reserved.

FILE: Ялла - Ялла.flac
  Size: 386376900 Hash: 3CBBE0EF08E7973C5D15BB84280B44D2 Accuracy: -m0
  Conclusion: CDDA 100%
  Signature: D6EAF10EC0F1496EF65D1C8F1D1AE81BC86E9A6A

Детали торрента:
Название:ВИА Ялла - 4 альбома (1982 - 2008) [FLAC|Lossless]<Retro, Эстрада, Pop>
Дата добавления:24 Май 2012 08:05:15
Размер:1,3 GB
Раздают:1
Качают:0
Форум:Советская эстрада, Ретро (Lossless)

All rights reserved © 2015-2018