TORRENTS43.COM

Скачать Том и Джерри: История о Щелкунчике / Tom and Jerry: A Nutcracker Tale (2007) DVD5


Том и Джерри: История о Щелкунчике / Tom and Jerry: A Nutcracker Tale (2007) DVD5
Русское название: Том и Джерри: История о Щелкунчике
Оригинальное название: Tom and Jerry: A Nutcracker Tale
Год выпуска: 2007
Производство: Warner Bross
Жанр: Мультфильм, комедия, семейный
Перевод: Дублированный
Язык субтитров: Русский, английский, венгерский, греческий, иврит, литовский, украинский

Описание:
В пустом оперном театре Джерри загадывает желание о собственных выступлениях, и магическим образом его мечта сбывается. Маленький мышонок переносится в волшебное королевство, где все возможно: конфетные леса, поющие снежинки, даже игрушки оживают! Джерри отлично проводит время со своими новыми друзьями, когда он танцует с балериной из музыкальной коробки, он счастлив, как никогда ранее. К сожалению, бездомные кошки, приведенные Томом, врываются на вечеринку Джерри, похищают балерину из музыкальной коробки и приносят ужас в праздничное королевство. Теперь все зависит от Джерри, с помощью знакомой мышки Таффи и новых друзей он может все наладить!



Режиссер: Спайк Брандт, Тони Червоне
Персонажи: Чантал Страндт, Йен Джеймс Корлетт, Кэтлин Барр, Тара Стронг, Гари Чок

Продолжительность: 00:48:27

Видеокодек: MPEG-2
Битрейт видео: ~5502 Кбит/сек
Размер кадра: PAL 4:3 (720x576) VBR
Качество видео: DVD5
Аудиокодек: AC3
Битрейт аудио:
Audio #1: Английский (AC3, 6ch, 384Kbps)
Audio #2: Русский (AC3, 2/0ch, 192Kbps)
Audio #3: Иврит (AC3, 2/0ch, 192Kbps)
Audio #4: Греческий (AC3, 2/0ch, 192Kbps)
Audio #5: Венгерский (AC3, 2/0ch, 192Kbps)
Audio #6: Английский (AC3, 2/0ch, 192Kbps)
Сэмпл: Ссылка
Дополнительно: Отсутствует

Все раздачи Том и Джерри: История о Щелкунчике

MediaInfo

Общее
Полное имя : G:\Мультфильмы\Tom.i.Dzeri.Istoriya.o.Shelkunchike.2007.DVD5\VIDEO_TS\VTS_01_2.VOB
Формат : MPEG-PS
Размер файла : 1024 Мбайт
Продолжительность : 21 м.
Общий поток : 6789 Кбит/сек

Видео
Идентификатор : 224 (0xE0)
Формат : MPEG Video
Версия формата : Version 2
Профиль формата : Main@Main
Параметр BVOP формата : Да
Параметр матрицы формата : По умолчанию
Параметры GOP формата : M=3, N=15
Продолжительность : 21 м.
Вид битрейта : Переменный
Битрейт : 5502 Кбит/сек
Номинальный битрейт : 7500 Кбит/сек
Ширина : 720 пикс.
Высота : 576 пикс.
Соотношение сторон : 4:3
Частота кадров : 25,000 кадр/сек
Стандарт вещания : PAL
Цветовое пространство : YUV
Подвыборка цветности : 4:2:0
Битовая глубина : 8 бит
Тип развёртки : Чересстрочная
Порядок развёртки : Верхнее поле первое
Метод сжатия : С потерями
Бит/(Пиксели*Кадры) : 0.531
Размер потока : 830 Мбайт (81%)

Аудио #1
Идентификатор : 189 (0xBD)-128 (0x80)
Формат : AC-3
Формат/Информация : Audio Coding 3
Расширение режима : CM (complete main)
Режим смешивания : DVD-Video
Продолжительность : 21 м.
Вид битрейта : Постоянный
Битрейт : 384 Кбит/сек
Канал(ы) : 6 канала(ов)
Расположение каналов : Front: L C R, Side: L R, LFE
Частота : 48,0 КГц
Битовая глубина : 16 бит
Метод сжатия : С потерями
Задержка видео : -576 мс.
Размер потока : 57,9 Мбайт (6%)

Аудио #2
Идентификатор : 189 (0xBD)-129 (0x81)
Формат : AC-3
Формат/Информация : Audio Coding 3
Профиль формата : Dolby Digital
Расширение режима : CM (complete main)
Режим смешивания : DVD-Video
Продолжительность : 21 м.
Вид битрейта : Постоянный
Битрейт : 192 Кбит/сек
Канал(ы) : 2 канала(ов)
Расположение каналов : Front: L R
Частота : 48,0 КГц
Битовая глубина : 16 бит
Метод сжатия : С потерями
Задержка видео : -544 мс.
Размер потока : 29,0 Мбайт (3%)

Аудио #3
Идентификатор : 189 (0xBD)-130 (0x82)
Формат : AC-3
Формат/Информация : Audio Coding 3
Профиль формата : Dolby Digital
Расширение режима : CM (complete main)
Режим смешивания : DVD-Video
Продолжительность : 21 м.
Вид битрейта : Постоянный
Битрейт : 192 Кбит/сек
Канал(ы) : 2 канала(ов)
Расположение каналов : Front: L R
Частота : 48,0 КГц
Битовая глубина : 16 бит
Метод сжатия : С потерями
Задержка видео : -544 мс.
Размер потока : 29,0 Мбайт (3%)

Аудио #4
Идентификатор : 189 (0xBD)-131 (0x83)
Формат : AC-3
Формат/Информация : Audio Coding 3
Расширение режима : CM (complete main)
Режим смешивания : DVD-Video
Продолжительность : 21 м.
Вид битрейта : Постоянный
Битрейт : 192 Кбит/сек
Канал(ы) : 2 канала(ов)
Расположение каналов : Front: L R
Частота : 48,0 КГц
Битовая глубина : 16 бит
Метод сжатия : С потерями
Задержка видео : -544 мс.
Размер потока : 29,0 Мбайт (3%)

Аудио #5
Идентификатор : 189 (0xBD)-132 (0x84)
Формат : AC-3
Формат/Информация : Audio Coding 3
Профиль формата : Dolby Digital
Расширение режима : CM (complete main)
Режим смешивания : DVD-Video
Продолжительность : 21 м.
Вид битрейта : Постоянный
Битрейт : 192 Кбит/сек
Канал(ы) : 2 канала(ов)
Расположение каналов : Front: L R
Частота : 48,0 КГц
Битовая глубина : 16 бит
Метод сжатия : С потерями
Задержка видео : -544 мс.
Размер потока : 29,0 Мбайт (3%)

Меню

DVDInfo

Title: HITACHI
Size: 2.40 Gb ( 2 518 770 KBytes ) - DVD-5
Enabled regions: 1, 2, 3, 4, 5, 6, 7, 8

VTS_01 :
Play Length: 00:46:52+00:00:12+00:01:23
Video: PAL 4:3 (720x576) VBR
Audio:
English (Dolby AC3, 6 ch)
Greek (Dolby AC3, 2 ch)
Hebrew (Dolby AC3, 2 ch)
Magyar (Dolby AC3, 2 ch)
Russian (Dolby AC3, 2 ch)
English (Dolby AC3, 2 ch)
Subtitles:
English
Greek
Hebrew
Magyar
Lithuanian
Russian
Ukrainian

VTS_02 :
Play Length: 00:05:57
Video: PAL 16:9 (720x576) VBR, Auto Letterboxed
Audio:
Not specified (Dolby AC3, 2 ch)
English (Dolby AC3, 6 ch)
English (Dolby AC3, 6 ch)
English (Dolby AC3, 6 ch)
English (Dolby AC3, 6 ch)
English (Dolby AC3, 6 ch)
Not specified (Dolby AC3, 2 ch)
Subtitles:
Not specified
Not specified
Not specified
Not specified
Not specified
Not specified
Not specified

Menu Video:
PAL 16:9 (720x576) VBR
Auto Letterboxed
Menu Subtitles:
Not specified
Menu Language Unit :
Root Menu

Скриншоты меню


Скриншоты:



Смотреть Online

http://moonwalk.cc/video/9f2bda895d8bdd50/iframe
Детали торрента:
Название:Том и Джерри: История о Щелкунчике / Tom and Jerry: A Nutcracker Tale (2007) DVD5
Дата добавления:31 Май 2012 11:26:59
Размер:2,4 GB
Раздают:
Качают:0
Форум:Зарубежные Мультфильмы (DVD, Сборники)

All rights reserved © 2015-2018