TORRENTS43.COM

Скачать Загадки истории - подводные миры / Ancient Aliens (2011) DVB


Загадки истории - подводные миры / Ancient Aliens (2011) DVB
Русское название: Загадки истории - подводные миры
Оригинальное название: Ancient Aliens
Режиссер: Кевин Барнс
Год выпуска: 2011
Жанр: Документальный

Описание:
Древние памятники, скрытые глубоко под водой. Некогда процветающий мегаполис, находящийся теперь на глубине в полумили. В одном только Средиземном море известно более 200 затонувших городов. Мы отправляемся на поиски руин, оставшихся со времен, когда, как утверждает традиционная археология, никаких городов еще не существовало...

Продолжительность: 00:42:12

Перевод: Одноголосый закадровый, профессиональный

Видеокодек: MPEG 2, PAL
Битрейт видео: ~3 365 Kbps
Размер кадра: 720/576
Качество видео: DVB
Аудиокодек: MPEG Layer 2
Битрейт аудио: 256 Kbps, 48.0 KHz, 2 ch

MediaInfo:

General
Complete name : D:\Загадки истории. Подводные миры (2011)_DVB by SLuMeP .mpg
Format : MPEG-PS
File size : 1.09 GiB
Duration : 42mn 12s
Overall bit rate : 3 695 Kbps
Writing library : (c) 1998-2010 Womble Multimedia, Inc. / MPEG Video Wizard DVD 5.0.0.114 (01/2010) / Apr 20 2010

Video
ID : 224 (0xE0)
Format : MPEG Video
Format version : Version 2
Format profile : Main@Main
Format settings, BVOP : Yes
Format settings, Matrix : Default
Duration : 42mn 12s
Bit rate mode : Variable
Bit rate : 3 365 Kbps
Nominal bit rate : 15.0 Mbps
Width : 720 pixels
Height : 576 pixels
Display aspect ratio : 4:3
Frame rate : 25.000 fps
Standard : PAL
Color space : YUV
Chroma subsampling : 4:2:0
Bit depth : 8 bits
Scan type : Interlaced
Scan order : Top Field First
Bits/(Pixel*Frame) : 0.325
Stream size : 1 016 MiB (91%)
Writing library : (c) 1998-2010 Womble Multimedia, Inc. / MPEG Video Wizard DVD 5.0.0.114 (01/2010) / Apr 20 2010

Audio
ID : 192 (0xC0)
Format : MPEG Audio
Format version : Version 1
Format profile : Layer 2
Duration : 42mn 12s
Bit rate mode : Constant
Bit rate : 256 Kbps
Channel(s) : 2 channels
Sampling rate : 48.0 KHz
Stream size : 77.3 MiB (7%)
Скриншоты:


Детали торрента:
Название:Загадки истории - подводные миры / Ancient Aliens (2011) DVB
Дата добавления:08 Июн 2012 12:22:42
Размер:1,09 GB
Раздают:
Качают:0
Форум:Непознанное и сверхъестественное

All rights reserved © 2015-2018