TORRENTS43.COM

Скачать Berliner Philharmoniker with Herbert von Karajan - Requiem - Mozart, KV 626 (1962) [FLAC 2.0 24/96|tracks (Vinyl Rip)]<Classical>


Berliner Philharmoniker with Herbert von Karajan - Mozart - Requiem, KV 626 (1962)
Год: 1962
Жанр: Classical

Издатель: Deutsche Grammophon { 413 268-1 }
Страна изготовитель: Germany
Формат: Vinyl LP

Кодек: FLAC 2.0
Битрейт: 24 Bits 96 kHz

Продолжительность: 00:55:16

Трек лист:

Side 1
A1. Requiem [08:40]
A2. Dies Irae [02:50]
A3. Tuba Mirum [04:08]
A4. Rex Tremendae [02:27]
A5. Recordare [05:24]
A6. Confutatis [02:32]
A7. Lacrimosa [03:25]

Side 2
B1. Domine Jesu [04:08]
B2. Hostias [05:03]
B3. Sanctus [01:40]
B4. Benedictus [05:08]
B5. Agnus Dei [10:04]

Дополнительная информация:

Orchestra – Berliner Philharmoniker
Conductor – Herbert von Karajan

Alto Vocals, Contralto Vocals – Hilde Rössel-Majdan
Bass Vocals – Walter Berry
Chorus – Wiener Singverein
Chorus Master [Einstudierung] – Reinhold Schmid
Composed By – Wolfgang Amadeus Mozart
Design – Werner Koberstein
Organ – Wolfgang Meyer (2)
Photography – Harro Wolter
Soprano Vocals – Wilma Lipp
Tenor Vocals – Anton Dermota

Отчёт MediaInfo:

Код:

General
Complete name                            : ..\[Vinyl-Rip] Mozart - Requiem\01 - Requiem.flac
Format                                   : FLAC
Format/Info                              : Free Lossless Audio Codec
File size                                : 176 MiB
Duration                                 : 8mn 42s
Overall bit rate mode                    : Variable
Overall bit rate                         : 2 827 Kbps
Track name                               : 01 - Requiem

Audio
Format                                   : FLAC
Format/Info                              : Free Lossless Audio Codec
Duration                                 : 8mn 42s
Bit rate mode                            : Variable
Bit rate                                 : 2 827 Kbps
Channel(s)                               : 2 channels
Sampling rate                            : 96.0 KHz
Bit depth                                : 24 bits
Stream size                              : 176 MiB (100%)
Writing library                          : libFLAC 1.2.1 (UTC 2007-09-17)

General
Complete name                            : ..\[Vinyl-Rip] Mozart - Requiem\02 - Dies irae.flac
Format                                   : FLAC
Format/Info                              : Free Lossless Audio Codec
File size                                : 40.8 MiB
Duration                                 : 1mn 56s
Overall bit rate mode                    : Variable
Overall bit rate                         : 2 931 Kbps
Track name                               : 02 - Dies irae

Audio
Format                                   : FLAC
Format/Info                              : Free Lossless Audio Codec
Duration                                 : 1mn 56s
Bit rate mode                            : Variable
Bit rate                                 : 2 931 Kbps
Channel(s)                               : 2 channels
Sampling rate                            : 96.0 KHz
Bit depth                                : 24 bits
Stream size                              : 40.8 MiB (100%)
Writing library                          : libFLAC 1.2.1 (UTC 2007-09-17)

General
Complete name                            : ..\[Vinyl-Rip] Mozart - Requiem\03 - Tuba mirum.flac
Format                                   : FLAC
Format/Info                              : Free Lossless Audio Codec
File size                                : 84.9 MiB
Duration                                 : 4mn 18s
Overall bit rate mode                    : Variable
Overall bit rate                         : 2 759 Kbps
Track name                               : 03 - Tuba mirum

Audio
Format                                   : FLAC
Format/Info                              : Free Lossless Audio Codec
Duration                                 : 4mn 18s
Bit rate mode                            : Variable
Bit rate                                 : 2 759 Kbps
Channel(s)                               : 2 channels
Sampling rate                            : 96.0 KHz
Bit depth                                : 24 bits
Stream size                              : 84.9 MiB (100%)
Writing library                          : libFLAC 1.2.1 (UTC 2007-09-17)

General
Complete name                            : ..\[Vinyl-Rip] Mozart - Requiem\04 - Rex tremendae.flac
Format                                   : FLAC
Format/Info                              : Free Lossless Audio Codec
File size                                : 50.5 MiB
Duration                                 : 2mn 28s
Overall bit rate mode                    : Variable
Overall bit rate                         : 2 859 Kbps
Track name                               : 04 - Rex tremendae

Audio
Format                                   : FLAC
Format/Info                              : Free Lossless Audio Codec
Duration                                 : 2mn 28s
Bit rate mode                            : Variable
Bit rate                                 : 2 859 Kbps
Channel(s)                               : 2 channels
Sampling rate                            : 96.0 KHz
Bit depth                                : 24 bits
Stream size                              : 50.5 MiB (100%)
Writing library                          : libFLAC 1.2.1 (UTC 2007-09-17)

General
Complete name                            : ..\[Vinyl-Rip] Mozart - Requiem\05 - Recordare.flac
Format                                   : FLAC
Format/Info                              : Free Lossless Audio Codec
File size                                : 105 MiB
Duration                                 : 5mn 22s
Overall bit rate mode                    : Variable
Overall bit rate                         : 2 733 Kbps
Track name                               : 05 - Recordare

Audio
Format                                   : FLAC
Format/Info                              : Free Lossless Audio Codec
Duration                                 : 5mn 22s
Bit rate mode                            : Variable
Bit rate                                 : 2 733 Kbps
Channel(s)                               : 2 channels
Sampling rate                            : 96.0 KHz
Bit depth                                : 24 bits
Stream size                              : 105 MiB (100%)
Writing library                          : libFLAC 1.2.1 (UTC 2007-09-17)

General
Complete name                            : ..\[Vinyl-Rip] Mozart - Requiem\06 - Confutatis.flac
Format                                   : FLAC
Format/Info                              : Free Lossless Audio Codec
File size                                : 49.7 MiB
Duration                                 : 2mn 36s
Overall bit rate mode                    : Variable
Overall bit rate                         : 2 668 Kbps
Track name                               : 06 - Confutatis

Audio
Format                                   : FLAC
Format/Info                              : Free Lossless Audio Codec
Duration                                 : 2mn 36s
Bit rate mode                            : Variable
Bit rate                                 : 2 668 Kbps
Channel(s)                               : 2 channels
Sampling rate                            : 96.0 KHz
Bit depth                                : 24 bits
Stream size                              : 49.7 MiB (100%)
Writing library                          : libFLAC 1.2.1 (UTC 2007-09-17)

General
Complete name                            : ..\[Vinyl-Rip] Mozart - Requiem\07 - Lacrimosa.flac
Format                                   : FLAC
Format/Info                              : Free Lossless Audio Codec
File size                                : 66.4 MiB
Duration                                 : 3mn 24s
Overall bit rate mode                    : Variable
Overall bit rate                         : 2 720 Kbps
Track name                               : 07 - Lacrimosa

Audio
Format                                   : FLAC
Format/Info                              : Free Lossless Audio Codec
Duration                                 : 3mn 24s
Bit rate mode                            : Variable
Bit rate                                 : 2 720 Kbps
Channel(s)                               : 2 channels
Sampling rate                            : 96.0 KHz
Bit depth                                : 24 bits
Stream size                              : 66.4 MiB (100%)
Writing library                          : libFLAC 1.2.1 (UTC 2007-09-17)

General
Complete name                            : ..\[Vinyl-Rip] Mozart - Requiem\08 - Domine Jesu.flac
Format                                   : FLAC
Format/Info                              : Free Lossless Audio Codec
File size                                : 85.9 MiB
Duration                                 : 4mn 12s
Overall bit rate mode                    : Variable
Overall bit rate                         : 2 851 Kbps
Track name                               : 08 - Domine Jesu

Audio
Format                                   : FLAC
Format/Info                              : Free Lossless Audio Codec
Duration                                 : 4mn 12s
Bit rate mode                            : Variable
Bit rate                                 : 2 851 Kbps
Channel(s)                               : 2 channels
Sampling rate                            : 96.0 KHz
Bit depth                                : 24 bits
Stream size                              : 85.9 MiB (100%)
Writing library                          : libFLAC 1.2.1 (UTC 2007-09-17)

General
Complete name                            : ..\[Vinyl-Rip] Mozart - Requiem\09 - Hostias.flac
Format                                   : FLAC
Format/Info                              : Free Lossless Audio Codec
File size                                : 101 MiB
Duration                                 : 5mn 5s
Overall bit rate mode                    : Variable
Overall bit rate                         : 2 774 Kbps
Track name                               : 09 - Hostias

Audio
Format                                   : FLAC
Format/Info                              : Free Lossless Audio Codec
Duration                                 : 5mn 5s
Bit rate mode                            : Variable
Bit rate                                 : 2 774 Kbps
Channel(s)                               : 2 channels
Sampling rate                            : 96.0 KHz
Bit depth                                : 24 bits
Stream size                              : 101 MiB (100%)
Writing library                          : libFLAC 1.2.1 (UTC 2007-09-17)

General
Complete name                            : ..\[Vinyl-Rip] Mozart - Requiem\10 - Sanctus.flac
Format                                   : FLAC
Format/Info                              : Free Lossless Audio Codec
File size                                : 36.9 MiB
Duration                                 : 1mn 46s
Overall bit rate mode                    : Variable
Overall bit rate                         : 2 900 Kbps
Track name                               : 10 - Sanctus

Audio
Format                                   : FLAC
Format/Info                              : Free Lossless Audio Codec
Duration                                 : 1mn 46s
Bit rate mode                            : Variable
Bit rate                                 : 2 900 Kbps
Channel(s)                               : 2 channels
Sampling rate                            : 96.0 KHz
Bit depth                                : 24 bits
Stream size                              : 36.9 MiB (100%)
Writing library                          : libFLAC 1.2.1 (UTC 2007-09-17)

General
Complete name                            : ..\[Vinyl-Rip] Mozart - Requiem\11 - Benedictus.flac
Format                                   : FLAC
Format/Info                              : Free Lossless Audio Codec
File size                                : 102 MiB
Duration                                 : 5mn 9s
Overall bit rate mode                    : Variable
Overall bit rate                         : 2 774 Kbps
Track name                               : 11 - Benedictus

Audio
Format                                   : FLAC
Format/Info                              : Free Lossless Audio Codec
Duration                                 : 5mn 9s
Bit rate mode                            : Variable
Bit rate                                 : 2 774 Kbps
Channel(s)                               : 2 channels
Sampling rate                            : 96.0 KHz
Bit depth                                : 24 bits
Stream size                              : 102 MiB (100%)
Writing library                          : libFLAC 1.2.1 (UTC 2007-09-17)

General
Complete name                            : ..\[Vinyl-Rip] Mozart - Requiem\12 - Agnus Dei.flac
Format                                   : FLAC
Format/Info                              : Free Lossless Audio Codec
File size                                : 201 MiB
Duration                                 : 10mn 11s
Overall bit rate mode                    : Variable
Overall bit rate                         : 2 758 Kbps
Track name                               : 12 - Agnus Dei

Audio
Format                                   : FLAC
Format/Info                              : Free Lossless Audio Codec
Duration                                 : 10mn 11s
Bit rate mode                            : Variable
Bit rate                                 : 2 758 Kbps
Channel(s)                               : 2 channels
Sampling rate                            : 96.0 KHz
Bit depth                                : 24 bits
Stream size                              : 201 MiB (100%)
Writing library                          : libFLAC 1.2.1 (UTC 2007-09-17)
Детали торрента:
Название:Berliner Philharmoniker with Herbert von Karajan - Requiem - Mozart, KV 626 (1962) [FLAC 2.0 24/96|tracks (Vinyl Rip)]<Classical>
Дата добавления:10 Июн 2012 16:30:36
Размер:1,08 GB
Раздают:
Качают:0
Форум:Vinyl-Rip и Hand-Made

All rights reserved © 2015-2018