TORRENTS43.COM

Скачать Burning Point - The Ignitor [Japanese Edition] (2012) [WavPack|Lossless]<Melodic Power Metal>


Burning Point - The Ignitor [Japanese Edition] (2012)
Год: 2012
Жанр: Melodic Power Metal
Продолжительность: 00:50:35
Издатель (лейбл): Spiritual Beast
Номер по каталогу: IUCP-16140
Кодек: WavPack
Битрейт: Lossless

Трек лист:
01. Eternal Flame (Salvation By Fire Part II) (03:58)
02. In The Fires Of My Self-Made Hell (03:08)
03. In The Night (03:50)
04. The Ignitor (04:07)
05. Silent Scream (04:38)
06. Heaven Is Hell (04:28)
07. Losing Sleep (04:02)
08. Demon Inside Of You (03:45)
09. Everdream (03:40)
10. Lost Tribe (03:45)
11. Holier Than Thou (04:22)
12. Ice Queen (Japanese bonus track) (03:33)
13. Blood Will Win (Japanese bonus track) (03:13)

Дополнительная информация:

Новый альбом финских металистов

Burning Point — финская пауэр-метал-группа из города Оулу. Burning Point сочетают музыкальность классических Accept, Black Sabbath и Judas Priest со страстью Children Of Bodom.


Pete Ahonen - Vocals, Guitars (1999-present) (Ghost Machinery, Stargazery, ex-Planet Caravan, ex-National Napalm Syndicate)
Jukka Jokikokko - Bass (2006-present) (Stargazery, Zenith Reunion)
Pekka Kolivuori - Guitars (2006-present) (Sicknote, ex-Agnus Dei, ex-Diesel Bunny)
Jussi Ontero - Keyboards (2004-2008), Drums (2008-present) (Dolorian, Ghost Machinery, Stargazery, ex-Wildcard)

Отчёт ЕАС:

Код:

Exact Audio Copy V1.0 beta 1 from 15. November 2010

EAC extraction logfile from 22. June 2012, 17:15

Burning Point / The Ignitor

Used drive  : Optiarc DVD RW AD-7260S   Adapter: 3  ID: 0

Read mode               : Secure
Utilize accurate stream : Yes
Defeat audio cache      : Yes
Make use of C2 pointers : No

Read offset correction                      : 48
Overread into Lead-In and Lead-Out          : No
Fill up missing offset samples with silence : Yes
Delete leading and trailing silent blocks   : No
Null samples used in CRC calculations       : Yes
Used interface                              : Installed external ASPI interface

Used output format              : User Defined Encoder
Selected bitrate                : 1024 kBit/s
Quality                         : High
Add ID3 tag                     : No
Command line compressor         : D:\Program Files\Exact Audio Copy\WavPack\wavpack.exe
Additional command line options : -hhx6 -w "Artist=%a" -w "Album=%g" -w "Year=%y" -w "Genre=%m" -w "Cuesheet=@*.cue" %s %d

TOC of the extracted CD

     Track |   Start  |  Length  | Start sector | End sector
    ---------------------------------------------------------
        1  |  0:00.00 |  3:58.69 |         0    |    17918
        2  |  3:58.69 |  3:08.25 |     17919    |    32043
        3  |  7:07.19 |  3:50.10 |     32044    |    49303
        4  | 10:57.29 |  4:07.71 |     49304    |    67899
        5  | 15:05.25 |  4:38.15 |     67900    |    88764
        6  | 19:43.40 |  4:28.25 |     88765    |   108889
        7  | 24:11.65 |  4:02.06 |    108890    |   127045
        8  | 28:13.71 |  3:45.59 |    127046    |   143979
        9  | 31:59.55 |  3:40.59 |    143980    |   160538
       10  | 35:40.39 |  3:45.26 |    160539    |   177439
       11  | 39:25.65 |  4:22.34 |    177440    |   197123
       12  | 43:48.24 |  3:33.27 |    197124    |   213125
       13  | 47:21.51 |  3:13.34 |    213126    |   227634

Range status and errors

Selected range

     Filename H:\BURNING POINT [2012] [CD] The Ignitor [EAC-WV]\Burning Point - The Ignitor.wav

     Peak level 98.8 %
     Extraction speed 0.2 X
     Range quality 100.0 %
     Test CRC A35F957B
     Copy CRC A35F957B
     Copy OK

No errors occurred

AccurateRip summary

Track  1  not present in database
Track  2  not present in database
Track  3  not present in database
Track  4  not present in database
Track  5  not present in database
Track  6  not present in database
Track  7  not present in database
Track  8  not present in database
Track  9  not present in database
Track 10  not present in database
Track 11  not present in database
Track 12  not present in database
Track 13  not present in database

None of the tracks are present in the AccurateRip database

End of status report

==== Log checksum 70467418A1BE6660C57F70F2C624BA7C9F07A09C8F278BC121E77C25040D625A ====

Отчёт auCDtect Task manager:

Код:

-----------------------

DON'T MODIFY THIS FILE

-----------------------

PERFORMER: auCDtect Task Manager, ver. 1.5.1RC4 build 1.5.1.5
Copyright (c) 2008-2010 y-soft. All rights reserved
http://y-soft.org

ANALYZER: auCDtect: CD records authenticity detector, version 0.8.2
Copyright (c) 2004 Oleg Berngardt. All rights reserved.
Copyright (c) 2004 Alexander Djourik. All rights reserved.

FILE: Burning Point - The Ignitor.wv
  Size: 393280665 Hash: 11108777B3D2DA4D8F84CD00D93E4960 Accuracy: -m0
  Conclusion: CDDA 100%
  Signature: D45FEA043365C0C763FA90A686C50D02CEB8BAC7
Детали торрента:
Название:Burning Point - The Ignitor [Japanese Edition] (2012) [WavPack|Lossless]<Melodic Power Metal>
Дата добавления:27 Июн 2012 09:45:00
Размер:412 MB
Раздают:
Качают:0
Форум:Metal (Lossless)

All rights reserved © 2015-2018