TORRENTS43.COM

Скачать Снова в стране Геометрии (1976) WEB-DLRip


Снова в стране Геометрии (1976) WEB-DLRip
Русское название: Снова в стране Геометрии
Год выпуска: 1976
Жанр: Рисованная анимация, Детский

Вид субтитров: Отсутствуют

Режиссер: Н. Павловская

Описание фильма:
Научно популярный мультфильм, о похождениях любопытной точки и карандаша в стране Геометрии.

Продолжительность: 00:09:38
Качество видео: WEB-DLRip

Видео:640x480 (1.33:1), 25 fps, XviD build 50 ~1000 kbps avg, 0.13 bit/pixel
Аудио:48 kHz, MPEG Layer 3, 2 ch, ~128.00 kbps avg

МедиаИнфо:

Видео
Идентификатор : 0
Формат : MPEG-4 Visual
Профиль формата : Advanced Simple@L5
Параметр BVOP формата : 2
Параметр QPel формата : Нет
Параметр GMC формата : Без точки перехода
Параметр матрицы формата : Default (H.263)
Идентификатор кодека : XVID
Идентификатор кодека/Подсказка : XviD
Продолжительность : 9 м. 38 с.
Битрейт : 1001 Кбит/сек
Ширина : 640 пикселей
Высота : 480 пикселей
Соотношение сторон : 4:3
Частота кадров : 25,000 кадров/сек
Цветовое пространство : YUV
Субдискретизация насыщенности : 4:2:0
Битовая глубина : 8 бит
Тип развёртки : Прогрессивная
Метод сжатия : С потерями
Бит/(Пиксели*Кадры) : 0.130
Размер потока : 69,0 Мбайт (88%)
Библиотека кодирования : XviD 1.2.1 (UTC 2008-12-04)

Аудио
Идентификатор : 1
Формат : MPEG Audio
Версия формата : Version 1
Профиль формата : Layer 3
Идентификатор кодека : 55
Идентификатор кодека/Подсказка : MP3
Продолжительность : 9 м. 38 с.
Вид битрейта : Постоянный
Битрейт : 128 Кбит/сек
Каналы : 2 канала
Частота : 48,0 КГц
Метод сжатия : С потерями
Размер потока : 8,82 Мбайт (11%)
Выравнивание : Соединение по промежуткам
Продолжительность промежутка : 40 мс. (1,00 видеокадр)
Время предзагрузки промежутка : 504 мс.
Библиотека кодирования : LAME3.98r
Настройки программы : -m s -V 4 -q 0 -lowpass 17 -b 128
Скриншоты:





Детали торрента:
Название:Снова в стране Геометрии (1976) WEB-DLRip
Дата добавления:30 Июн 2012 11:21:56
Размер:78,5 MB
Раздают:
Качают:0
Форум:Отечественные Мультфильмы для детей

All rights reserved © 2015-2018