TORRENTS43.COM

Скачать Genesis – Genesis (1983) [FLAC 2.0 24/192|image (Vinyl-Rip)]<Progressive Rock>


Genesis – Genesis (1983)
Год: 1983
Жанр: Progressive Rock
Страна: United Kingdom
Продолжительность: 00:46:06

Лейбл: Vertigo
Страна-производитель: Japan
Сканы: Full

Кодек: FLAC (image+.cue)
Битрейт: Lossless
Формат записи: 24/192
Формат раздачи: 24/192
Автор оцифровки: AlBeOne

Треклист:
01. Mama [06:50]
02. That's All [04:27]
03. Home by the Sea [05:08]
04. Second Home by the Sea [06:07]
05. Illegal Alien [05:15]
06. Taking It All Too Hard [04:00]
07. Just a Job to Do [04:48]
08. Silver Rainbow [04:30]
09. It's Gonna Get Better [05:00]


Содержимое индексной карты (.cue):

Код:

REM DATE 1983
PERFORMER "Genesis"
TITLE "Genesis"
FILE "Side 1.flac" WAVE
  TRACK 01 AUDIO
    TITLE "Mama"
    PERFORMER "Genesis"
    INDEX 01 00:00:00
  TRACK 02 AUDIO
    TITLE "That's All"
    PERFORMER "Genesis"
    INDEX 01 06:50:00
  TRACK 03 AUDIO
    TITLE "Home by the Sea"
    PERFORMER "Genesis"
    INDEX 01 11:17:00
  TRACK 04 AUDIO
    TITLE "Second Home by the Sea"
    PERFORMER "Genesis"
    INDEX 01 16:25:00
FILE "Side 2.flac" WAVE
  TRACK 05 AUDIO
    TITLE "Illegal Alien"
    PERFORMER "Genesis"
    INDEX 01 00:00:00
  TRACK 06 AUDIO
    TITLE "Taking It All Too Hard"
    PERFORMER "Genesis"
    INDEX 01 05:15:00
  TRACK 07 AUDIO
    TITLE "Just a Job to Do"
    PERFORMER "Genesis"
    INDEX 01 09:15:00
  TRACK 08 AUDIO
    TITLE "Silver Rainbow"
    PERFORMER "Genesis"
    INDEX 01 14:03:00
  TRACK 09 AUDIO
    TITLE "It's Gonna Get Better"
    PERFORMER "Genesis"
    INDEX 01 18:33:00

Медиа Инфо

Код:

Общее
Полное имя                               : H:\VINIL RIP\Genesis 1983\Side 1.flac
Формат                                   : FLAC
Формат/Информация                        : Free Lossless Audio Codec
Размер файла                             : 797 Мбайт
Продолжительность                        : 22 м.
Режим общего битрейта                    : Переменный
Общий поток                              : 4942 Кбит/сек
Дата записи                              : 2012-07-12
Engineer                                 : user aszxc
Encoded By                               : dBpoweramp Release 13.1

Аудио
Формат                                   : FLAC
Формат/Информация                        : Free Lossless Audio Codec
Продолжительность                        : 22 м.
Вид битрейта                             : Переменный
Битрейт                                  : 4942 Кбит/сек
Каналы                                   : 2 канала
Частота                                  : 192 КГц
Битовая глубина                          : 24 бит
Размер потока                            : 797 Мбайт (100%)
Библиотека кодирования                   : libFLAC 1.2.1 (UTC 2007-09-17)

Общее
Полное имя                               : H:\VINIL RIP\Genesis 1983\Side 2.flac
Формат                                   : FLAC
Формат/Информация                        : Free Lossless Audio Codec
Размер файла                             : 827 Мбайт
Продолжительность                        : 23 м.
Режим общего битрейта                    : Переменный
Общий поток                              : 4906 Кбит/сек
Дата записи                              : 2012-07-12
Engineer                                 : user aszxc
Encoded By                               : dBpoweramp Release 13.1

Аудио
Формат                                   : FLAC
Формат/Информация                        : Free Lossless Audio Codec
Продолжительность                        : 23 м.
Вид битрейта                             : Переменный
Битрейт                                  : 4906 Кбит/сек
Каналы                                   : 2 канала
Частота                                  : 192 КГц
Битовая глубина                          : 24 бит
Размер потока                            : 827 Мбайт (100%)
Библиотека кодирования                   : libFLAC 1.2.1 (UTC 2007-09-17)

Тех. информация

Код класса состояния винила: NrMint
Устройство воспроизведения: ClearAudio Emotion , картридж ClearAudio Concept MC
Предварительный усилитель: Musical Fidelity V LPS.
АЦП: E-mu 1212
Программа-оцифровщик: SF9
Обработка: ручное удаление щелчков

Спектр; АХЧ; уровень записи


Детали торрента:
Название:Genesis – Genesis (1983) [FLAC 2.0 24/192|image (Vinyl-Rip)]<Progressive Rock>
Дата добавления:15 Июл 2012 19:15:28
Размер:1,65 GB
Раздают:
Качают:0
Форум:Vinyl-Rip и Hand-Made

All rights reserved © 2015-2018