TORRENTS43.COM

Скачать Олимпийские игры 2012. Лондон. Волейбол. Мужчины. Финал. Россия - Бразилия (2012) SATRip


Олимпийские игры 2012. Лондон. Волейбол. Мужчины. Финал. Россия - Бразилия (2012) SATRip
Название: Олимпийские игры 2012. Лондон. Волейбол. Мужчины. Финал. Россия - Бразилия
Режиссер / Телекомпания: Первый канал
Год выпуска: 2012
Жанр: Спорт, волейбол

Описание:
Волейбол (англ. volleyball от volley — «ударять мяч с лёта» (также переводят как «летающий», «парящий») и ball — «мяч») — вид спорта, командная спортивная игра, в процессе которой две команды соревнуются на специальной площадке, разделённой сеткой, стремясь направить мяч на сторону соперника таким образом, чтобы он приземлился на площадке противника (добить до пола), либо игрок защищающейся команды допустил ошибку. При этом для организации атаки игрокам одной команды разрешается не более трёх касаний мяча подряд (в дополнение к касанию на блоке).

Единственный финал, до которого добрались россияне в игровых видах спорта! Мужской волейбол, дамы и господа! Россия - Бразилия, обратной дороги нет!

Продолжительность: 02:16:24

Видеокодек: Xvid
Битрейт видео: 1698 kbps
Размер кадра: 704x400
Качество видео: SATRip
Аудиокодек: MP3, 2 ch
Битрейт аудио: 192 kbps

MI

Код:
Общее
Полное имя                       : D:\НЕ УДАЛЯТЬ!!!\Rossija.Brazilija.2012.SATRip.avi
Формат                           : AVI
Формат/Информация                : Audio Video Interleave
Размер файла                     : 1,75 Гбайт
Продолжительность                : 2 ч. 16 м.
Общий поток                      : 1836 Кбит/сек
Библиотека кодирования           : VirtualDub build 32842/release

Видео
Идентификатор                    : 0
Формат                           : MPEG-4 Visual
Профиль формата                  : Advanced Simple@L5
Параметр BVOP формата            : 2
Параметр QPel формата            : Нет
Параметр GMC формата             : Без точки перехода
Параметр матрицы формата         : Default (H.263)
Режим смешивания                 : Сжатый битовый поток
Идентификатор кодека             : XVID
Идентификатор кодека/Подсказка   : XviD
Продолжительность                : 2 ч. 16 м.
Битрейт                          : 1698 Кбит/сек
Ширина                           : 704 пикселя
Высота                           : 400 пикселей
Соотношение сторон               : 16:9
Частота кадров                   : 25,000 кадров/сек
Цветовое пространство            : YUV
Субдискретизация насыщенности    : 4:2:0
Битовая глубина                  : 8 бит
Тип развёртки                    : Прогрессивная
Метод сжатия                     : С потерями
Бит/(Пиксели*Кадры)              : 0.241
Размер потока                    : 1,62 Гбайт (93%)
Библиотека кодирования           : XviD 64

Аудио
Идентификатор                    : 1
Формат                           : MPEG Audio
Версия формата                   : Version 1
Профиль формата                  : Layer 3
Режим                            : Joint stereo
Расширение режима                : MS Stereo
Идентификатор кодека             : 55
Идентификатор кодека/Подсказка   : MP3
Продолжительность                : 2 ч. 16 м.
Вид битрейта                     : Постоянный
Битрейт                          : 128 Кбит/сек
Каналы                           : 2 канала
Частота                          : 48,0 КГц
Метод сжатия                     : С потерями
Размер потока                    : 125 Мбайт (7%)
Выравнивание                     : Разделение по промежуткам
Продолжительность промежутка     : 40  мс. (1,00 видеокадр)
Время предзагрузки промежутка    : 500  мс.

Скриншоты:


Приятного просмотра
и не забываем говорить СПАСИБО...

Детали торрента:
Название:Олимпийские игры 2012. Лондон. Волейбол. Мужчины. Финал. Россия - Бразилия (2012) SATRip
Дата добавления:12 Авг 2012 23:41:15
Размер:1,75 GB
Раздают:
Качают:0
Форум:Архив Документалистики и TV

All rights reserved © 2015-2018