TORRENTS43.COM

Скачать Накануне (1959) DVDRip


Накануне (1959) DVDRip
Русское название: Накануне
Год выпуска: 1959
Жанр: Драма, история
Выпущено: СССР, Болгария, Мосфильм, Киностудия БОЯНА

Описание фильма:
Фарфоровой красоты Елена Николаевна Стахова, дочь столбового дворянина, влюбилась в замечательного человека - болгарского студента Дмитрия Никаноровича Инсарова, неимущего демократа - разночинца, и тайком от родителей вышла за него замуж. Болгария уже 400 лет боролась за свободу против турков - поработителей. Елена решила уехать с мужем в эту страну. Ее мать Анна Васильевна Стахова и отец были против, но прогрессивная девушка, полная возвышенных идеалов, стремления к свободе, деятельному добру, настояла на своем, она готова на жертвы и лишения. Влюбленные в нее Берсенев и Шубин, однако, ничего романтичного предложить не могли. Бороться и сражаться Инсарову не пришлось - он умер от чахотки в Венеции.

Режиссер: Владимир Петров
Актеры: Любомир Кабакчиев, Ирина Милопольская, Борис Ливанов, Ольга Андровская, Всеволод Сафонов, Ээве Киви, Стефан Пейчев, Олег Табаков, Михаил Яншин, Лариса Гордейчик

Продолжительность: 01:23:04



Видеокодек: DivX 5
Битрейт видео: ~2157 kb/s
Размер кадра: 704 x 528
Качество видео: DVDRip
Аудиокодек: AC3 2.0
Битрейт аудио: 192 kb/s

MediaInfo

Общее
Полное имя : Nakanune.1959.DivX.DVDRip.avi
Формат : AVI
Формат/Информация : Audio Video Interleave
Размер файла : 1,37 Гбайт
Продолжительность : 1 ч. 23 м.
Общий поток : 2355 Кбит/сек
Программа кодирования : FairUse Wizard - http://fairusewizard.com
Библиотека кодирования : The best and REALLY easy backup tool

Видео
Идентификатор : 0
Формат : MPEG-4 Visual
Параметр BVOP формата : 1
Параметр QPel формата : Нет
Параметр GMC формата : Без точки перехода
Параметр матрицы формата : Default (H.263)
Режим смешивания : Сжатый битовый поток
Идентификатор кодека : DX50
Идентификатор кодека/Подсказка : DivX 5
Продолжительность : 1 ч. 23 м.
Битрейт : 2154 Кбит/сек
Ширина : 704 пикселя
Высота : 512 пикселей
Соотношение сторон : 1,375
Частота кадров : 25,000 кадров/сек
Цветовое пространство : YUV
Субдискретизация насыщенности : 4:2:0
Битовая глубина : 8 бит
Тип развёртки : Прогрессивная
Метод сжатия : С потерями
Бит/(Пиксели*Кадры) : 0.239
Размер потока : 1,25 Гбайт (91%)
Библиотека кодирования : DivX 6.8.3-6.8.4 (UTC 2008-06-07)

Аудио
Идентификатор : 1
Формат : AC-3
Формат/Информация : Audio Coding 3
Расширение режима : CM (complete main)
Параметр Endianness формата : Big
Идентификатор кодека : 2000
Продолжительность : 1 ч. 23 м.
Вид битрейта : Постоянный
Битрейт : 192 Кбит/сек
Каналы : 2 канала
Расположение каналов : Front: L R
Частота : 48,0 КГц
Битовая глубина : 16 бит
Метод сжатия : С потерями
Размер потока : 114 Мбайт (8%)
Выравнивание : Разделение по промежуткам
Продолжительность промежутка : 40 мс. (1,00 видеокадр)
Время предзагрузки промежутка : 500 мс.
Скриншоты:


Смотреть Online

http://moonwalk.cc/video/392b400537c3d566/iframe
Детали торрента:
Название:Накануне (1959) DVDRip
Дата добавления:13 Сен 2012 03:18:08
Размер:1,37 GB
Раздают:
Качают:0
Форум:Старые Отечественные Фильмы (HD*Rip/LQ, DVDRip, SATRip, VHSRip)

All rights reserved © 2015-2018