TORRENTS43.COM

Скачать Doro - 2Albums+EP (2012) [FLAC|Lossless]<Heavy Metal>


Doro - 2Albums + EP (2012)
Год: 2012
Жанр: Heavy Metal
Страна: Германия
Продолжительность: 03:30:59

Кодек: FLAC (image+.cue)
Битрейт: Lossless


Описание:
Doro - Dorothee Pesch, выступающая под сценическим именем Doro немецкая певица. Экс-вокалистка хэви-метал группы Warlock, в настоящее время выступает сольно. В качестве сольного исполнителя Доро выпустила более десятка альбомов. Права на все песни Warlock принадлежат ей и по прежнему исполняются, сборник ранних записей Rare Diamonds вышел уже под её именем. Состав остальных музыкантов непостоянен и неоднократно менялся в течение пятнадцати лет.

Wikipedia
Discogs
Оф. сайт группы

2012 - Under My Skin: A Fine Selection Of Doro Classics (AFM 341-9)

Треклист:
CD 1:
01. All We Are (version 2007) (3:04)
02. You're My Family (4:17)
03. I Rule The Ruins (4:05)
04. Celebrate (4:57)
05. The Night Of The Warlock (5:45)
06. Strangers Yesterday (4:51)
07. Walking With The Angels (4:57)
08. Metal Tango (4:00)
09. Thunderspell (4:41)
10. Herzblut (4:42)
11. Warrior Soul (4:45)
12. My Majesty (4:09)
13. Fur Immer (4:39)
14. Love Me In Black (5:23)
15. Always Live To Win (3:03)
16. Running From The Devil (3:38)
17. Above The Ashes (4:20)
18. Let Love Rain On Me (3:53)

Продолжительность: 01:19:08

CD 2:
01. Celebrate (Full Metal Female Version) (4:56)
02. Rescue Me (3:52)
03. Rare Diamond (Acoustic Version) (3:39)
04. Angel in The Dark (4:17)
05. 1999 (4:04)
06. In Liebe Und Freundschaft (3:38)
07. I Lay My Head Upon My Sword (3:39)
08. Tausend Mal Gelebt (4:19)
09. Wildfire (4:25)
10. Breaking The Law (4:26)
11. She's Like Thunder (Version 2005) (3:13)
12. The Queen (3:39)
13. You Won My Love (4:14)
14. Lonely Wolf (4:00)

Продолжительность: 00:56:21

Отчёт ЕАС:

CD 1:

Код:
Exact Audio Copy V1.0 beta 3 from 29. August 2011

EAC extraction logfile from 14. July 2013, 7:00

Doro / Doro - Under My Skin A Fine Selection Of Doro Classics (CD 1)

Used drive  : MATSHITABD-CMB UJ242AS   Adapter: 0  ID: 1

Read mode               : Secure
Utilize accurate stream : Yes
Defeat audio cache      : Yes
Make use of C2 pointers : No

Read offset correction                      : 103
Overread into Lead-In and Lead-Out          : No
Fill up missing offset samples with silence : Yes
Delete leading and trailing silent blocks   : No
Null samples used in CRC calculations       : Yes
Used interface                              : Installed external ASPI interface

Used output format              : User Defined Encoder
Selected bitrate                : 1024 kBit/s
Quality                         : High
Add ID3 tag                     : Yes
Command line compressor         : C:\Program Files (x86)\Exact Audio Copy\Flac\flac.exe
Additional command line options : -V -8 -T "Date=%year%" -T "Genre=%genre%" %source%

TOC of the extracted CD

     Track |   Start  |  Length  | Start sector | End sector
    ---------------------------------------------------------
        1  |  0:00.00 |  3:04.09 |         0    |    13808
        2  |  3:04.09 |  4:16.39 |     13809    |    33047
        3  |  7:20.48 |  4:04.68 |     33048    |    51415
        4  | 11:25.41 |  4:57.00 |     51416    |    73690
        5  | 16:22.41 |  5:45.22 |     73691    |    99587
        6  | 22:07.63 |  4:51.14 |     99588    |   121426
        7  | 26:59.02 |  4:57.21 |    121427    |   143722
        8  | 31:56.23 |  3:59.70 |    143723    |   161717
        9  | 35:56.18 |  4:40.72 |    161718    |   182789
       10  | 40:37.15 |  4:42.29 |    182790    |   203968
       11  | 45:19.44 |  4:45.29 |    203969    |   225372
       12  | 50:04.73 |  4:08.44 |    225373    |   244016
       13  | 54:13.42 |  4:38.48 |    244017    |   264914
       14  | 58:52.15 |  5:22.65 |    264915    |   289129
       15  | 64:15.05 |  3:03.02 |    289130    |   302856
       16  | 67:18.07 |  3:38.21 |    302857    |   319227
       17  | 70:56.28 |  4:19.38 |    319228    |   338690
       18  | 75:15.66 |  3:52.60 |    338691    |   356150

Range status and errors

Selected range

     Filename C:\EACrip\Doro - Doro - Under My Skin A Fine Selection Of Doro Classics (CD 1).wav

     Peak level 98.8 %
     Extraction speed 4.6 X
     Range quality 100.0 %
     Test CRC A5320278
     Copy CRC A5320278
     Copy OK

No errors occurred

AccurateRip summary

Track  1  not present in database
Track  2  not present in database
Track  3  not present in database
Track  4  not present in database
Track  5  not present in database
Track  6  not present in database
Track  7  not present in database
Track  8  not present in database
Track  9  not present in database
Track 10  not present in database
Track 11  not present in database
Track 12  not present in database
Track 13  not present in database
Track 14  not present in database
Track 15  not present in database
Track 16  not present in database
Track 17  not present in database
Track 18  not present in database

None of the tracks are present in the AccurateRip database

End of status report

==== Log checksum 885440E647FA8C3A4DC7995AEA1603A3C539712267A5CD1BC823221DFDE1C121 ====

CD 2:

Код:
Exact Audio Copy V1.0 beta 3 from 29. August 2011

EAC extraction logfile from 14. July 2013, 7:34

Doro / Under My Skin A Fine Selection Of Doro Classics (CD 2)

Used drive  : MATSHITABD-CMB UJ242AS   Adapter: 0  ID: 1

Read mode               : Secure
Utilize accurate stream : Yes
Defeat audio cache      : Yes
Make use of C2 pointers : No

Read offset correction                      : 103
Overread into Lead-In and Lead-Out          : No
Fill up missing offset samples with silence : Yes
Delete leading and trailing silent blocks   : No
Null samples used in CRC calculations       : Yes
Used interface                              : Installed external ASPI interface

Used output format              : User Defined Encoder
Selected bitrate                : 1024 kBit/s
Quality                         : High
Add ID3 tag                     : Yes
Command line compressor         : C:\Program Files (x86)\Exact Audio Copy\Flac\flac.exe
Additional command line options : -V -8 -T "Date=%year%" -T "Genre=%genre%" %source%

TOC of the extracted CD

     Track |   Start  |  Length  | Start sector | End sector
    ---------------------------------------------------------
        1  |  0:00.00 |  4:56.30 |         0    |    22229
        2  |  4:56.30 |  3:51.50 |     22230    |    39604
        3  |  8:48.05 |  3:38.53 |     39605    |    56007
        4  | 12:26.58 |  4:16.56 |     56008    |    75263
        5  | 16:43.39 |  4:03.65 |     75264    |    93553
        6  | 20:47.29 |  3:37.62 |     93554    |   109890
        7  | 24:25.16 |  3:39.13 |    109891    |   126328
        8  | 28:04.29 |  4:19.22 |    126329    |   145775
        9  | 32:23.51 |  4:25.28 |    145776    |   165678
       10  | 36:49.04 |  4:25.46 |    165679    |   185599
       11  | 41:14.50 |  3:13.19 |    185600    |   200093
       12  | 44:27.69 |  3:39.32 |    200094    |   216550
       13  | 48:07.26 |  4:14.33 |    216551    |   235633
       14  | 52:21.59 |  3:59.65 |    235634    |   253623
       15  | 58:53.49 | 14:51.72 |    265024    |   331920

Range status and errors

Selected range

     Filename C:\EACrip\Doro - Under My Skin A Fine Selection Of Doro Classics (CD 2).wav

     Peak level 98.8 %
     Extraction speed 4.3 X
     Range quality 100.0 %
     Test CRC E8A9AC6B
     Copy CRC E8A9AC6B
     Copy OK

No errors occurred

AccurateRip summary

Track  1  not present in database
Track  2  not present in database
Track  3  not present in database
Track  4  not present in database
Track  5  not present in database
Track  6  not present in database
Track  7  not present in database
Track  8  not present in database
Track  9  not present in database
Track 10  not present in database
Track 11  not present in database
Track 12  not present in database
Track 13  not present in database
Track 14  not present in database

None of the tracks are present in the AccurateRip database

End of status report

==== Log checksum 86D1DD9D3D403804035D72F900EFFA4FE4FEC231BB4C32AEEB41397DE1925A87 ====

Отчёт auCDtect Task manager:

Код:
-----------------------

DON'T MODIFY THIS FILE

-----------------------

PERFORMER: auCDtect Task Manager, ver. 1.5.1RC4 build 1.5.1.5
Copyright (c) 2008-2010 y-soft. All rights reserved
http://y-soft.org

ANALYZER: auCDtect: CD records authenticity detector, version 0.8.2
Copyright (c) 2004 Oleg Berngardt. All rights reserved.
Copyright (c) 2004 Alexander Djourik. All rights reserved.

FILE: Doro - Under My Skin A Fine Selection Of Doro Classics (CD 1).flac
  Size: 578555029 Hash: D5CFE9FC8B202F25D059C0DB06537447 Accuracy: -m0
  Conclusion: CDDA 100%
  Signature: 5D3797F50CE0A1AC9006224FB0D7B41E709AD719
FILE: Doro - Under My Skin A Fine Selection Of Doro Classics (CD 2).flac
  Size: 395187466 Hash: 5E2A9D5194BD8146DABF44B70FE237C2 Accuracy: -m0
  Conclusion: CDDA 100%
  Signature: C777223F981B3F7DF066CAC784EB1B92B0C61BE1

2012 - Raise Your Fist (NB 2726-0)

Треклист:
01. Raise Your Fist In The Air (3:48)
02. Cold Hearted Lover (3:35)
03. Rock Till Death (3:02)
04. It Still Hurts (Feat. Lemmy) (4:09)
05. Take No Prisoner (3:08)
06. Grab The Bull (Last Man Standing) (4:57)
07. Engel (5:14)
08. Freiheit (Human Rights) (3:44)
09. Little Headbanger (Nackenbrecher) (3:15)
10. Revenge (4:49)
11. Free My Heart (5:09)
12. Victory (3:11)
13. Hero (4:05)
14. Sealed In Blood (Human Rights) (3:45)
15. Strong And Proud (3:33)

Продолжительность: 00:59:24

Отчёт ЕАС:

Код:
Exact Audio Copy V0.99 prebeta 5 from 4. May 2009

EAC extraction logfile from 24. November 2012, 18:21

Doro / Raise Your Fist

Used drive  : Optiarc DVD RW AD-7173A   Adapter: 1  ID: 0

Read mode               : Secure
Utilize accurate stream : Yes
Defeat audio cache      : Yes
Make use of C2 pointers : No

Read offset correction                      : 48
Overread into Lead-In and Lead-Out          : No
Fill up missing offset samples with silence : Yes
Delete leading and trailing silent blocks   : No
Null samples used in CRC calculations       : Yes
Used interface                              : Installed external ASPI interface

Used output format              : User Defined Encoder
Selected bitrate                : 1024 kBit/s
Quality                         : High
Add ID3 tag                     : No
Command line compressor         : C:\Program Files\Exact Audio Copy\Flac\flac.exe
Additional command line options : -6 -V %s

TOC of the extracted CD

     Track |   Start  |  Length  | Start sector | End sector
    ---------------------------------------------------------
        1  |  0:00.00 |  3:47.44 |         0    |    17068
        2  |  3:47.44 |  3:35.03 |     17069    |    33196
        3  |  7:22.47 |  3:02.25 |     33197    |    46871
        4  | 10:24.72 |  4:09.02 |     46872    |    65548
        5  | 14:33.74 |  3:08.32 |     65549    |    79680
        6  | 17:42.31 |  4:57.37 |     79681    |   101992
        7  | 22:39.68 |  5:13.47 |    101993    |   125514
        8  | 27:53.40 |  3:44.08 |    125515    |   142322
        9  | 31:37.48 |  3:14.59 |    142323    |   156931
       10  | 34:52.32 |  4:48.42 |    156932    |   178573
       11  | 39:40.74 |  5:09.21 |    178574    |   201769
       12  | 44:50.20 |  3:11.18 |    201770    |   216112
       13  | 48:01.38 |  4:04.51 |    216113    |   234463
       14  | 52:06.14 |  3:44.43 |    234464    |   251306
       15  | 55:50.57 |  3:33.35 |    251307    |   267316
       16  | 61:56.17 |  0:05.09 |    278717    |   279100

Range status and errors

Selected range

     Filename D:\METALLIUM\[metallium.moole.ru]\Doro - Raise Your Fist.wav

     Peak level 100.0 %
     Range quality 99.9 %
     Copy CRC 090F6D9C
     Copy OK

No errors occurred

AccurateRip summary

Track  1  cannot be verified as accurate (confidence 1)  [53D160B7], AccurateRip returned [B265F1E5]
Track  2  cannot be verified as accurate (confidence 1)  [370A9BA1], AccurateRip returned [A3BFBEF0]
Track  3  cannot be verified as accurate (confidence 1)  [58E3BED6], AccurateRip returned [33995657]
Track  4  cannot be verified as accurate (confidence 1)  [9D77B588], AccurateRip returned [F4463760]
Track  5  cannot be verified as accurate (confidence 1)  [6039B8B1], AccurateRip returned [E338AE30]
Track  6  cannot be verified as accurate (confidence 1)  [C6C0D45B], AccurateRip returned [197839DF]
Track  7  cannot be verified as accurate (confidence 1)  [51C5F422], AccurateRip returned [CC2A613B]
Track  8  cannot be verified as accurate (confidence 1)  [5F4344F2], AccurateRip returned [7F7993D9]
Track  9  cannot be verified as accurate (confidence 1)  [E83B7870], AccurateRip returned [77900A72]
Track 10  cannot be verified as accurate (confidence 1)  [DCC68303], AccurateRip returned [A5912E77]
Track 11  cannot be verified as accurate (confidence 1)  [1CF23408], AccurateRip returned [6D2057C7]
Track 12  cannot be verified as accurate (confidence 1)  [CDBD0373], AccurateRip returned [8A189300]
Track 13  cannot be verified as accurate (confidence 1)  [037E1DD7], AccurateRip returned [E41C3383]
Track 14  cannot be verified as accurate (confidence 1)  [A185DC29], AccurateRip returned [7CC96A27]
Track 15  cannot be verified as accurate (confidence 1)  [CA5B26DC], AccurateRip returned [632872B4]

No tracks could be verified as accurate
You may have a different pressing from the one(s) in the database

End of status report

Отчёт auCDtect Task manager:

Код:
-----------------------

DON'T MODIFY THIS FILE

-----------------------

PERFORMER: auCDtect Task Manager, ver. 1.5.1RC4 build 1.5.1.5
Copyright (c) 2008-2010 y-soft. All rights reserved
http://y-soft.org

ANALYZER: auCDtect: CD records authenticity detector, version 0.8.2
Copyright (c) 2004 Oleg Berngardt. All rights reserved.
Copyright (c) 2004 Alexander Djourik. All rights reserved.

FILE: Doro - Raise Your Fist.flac
  Size: 452048685 Hash: 6C4E609226D8074513B6F0670A99FE84 Accuracy: -m0
  Conclusion: CDDA 100%
  Signature: 188DA21E4E42FD2EF6A5513F4CD95243E258D6C4

2012 - Raise Your Fist In The Air (NB 2913-0)

Треклист:
01. Raise Your Fist In The Air (3:56)
02. Victory (3:11)
03. Engel (5:02)
04. Leve Ton Poing Vers Le Ciel (3:55)

Продолжительность: 00:16:04

Отчёт ЕАС:

Код:

Exact Audio Copy V1.0 beta 3 from 29. August 2011

EAC extraction logfile from 14. September 2012, 18:37

Doro  / Raise Your Fist In The Air (EP)

Used drive  : Optiarc DVD RW AD-7201S   Adapter: 1  ID: 1

Read mode               : Secure
Utilize accurate stream : Yes
Defeat audio cache      : Yes
Make use of C2 pointers : No

Read offset correction                      : 48
Overread into Lead-In and Lead-Out          : No
Fill up missing offset samples with silence : Yes
Delete leading and trailing silent blocks   : No
Null samples used in CRC calculations       : Yes
Used interface                              : Native Win32 interface for Win NT & 2000

Used output format              : User Defined Encoder
Selected bitrate                : 896 kBit/s
Quality                         : High
Add ID3 tag                     : No
Command line compressor         : C:\Program Files (x86)\Exact Audio Copy\Flac\flac.exe
Additional command line options : -8 -V %source%

TOC of the extracted CD

     Track |   Start  |  Length  | Start sector | End sector
    ---------------------------------------------------------
        1  |  0:00.00 |  3:55.65 |         0    |    17689
        2  |  3:55.65 |  3:10.66 |     17690    |    32005
        3  |  7:06.56 |  5:02.18 |     32006    |    54673
        4  | 12:08.74 |  3:55.07 |     54674    |    72305

Range status and errors

Selected range

     Filename D:\Doro - Raise Your Fist In The Air (EP) 2012\Doro  - Raise Your Fist In The Air (EP).wav

     Peak level 100.0 %
     Extraction speed 3.1 X
     Range quality 100.0 %
     Copy CRC B670ECDE
     Copy OK

No errors occurred

End of status report

Отчёт auCDtect Task manager:

Код:

-----------------------

DON'T MODIFY THIS FILE

-----------------------

PERFORMER: auCDtect Task Manager, ver. 1.5.1RC4 build 1.5.1.5
Copyright (c) 2008-2010 y-soft. All rights reserved
http://y-soft.org

ANALYZER: auCDtect: CD records authenticity detector, version 0.8.2
Copyright (c) 2004 Oleg Berngardt. All rights reserved.
Copyright (c) 2004 Alexander Djourik. All rights reserved.

FILE: Doro  - Raise Your Fist In The Air (EP).flac
  Size: 120971896 Hash: 9CCE242DBAE5DD540DA542B56385A3AD Accuracy: -m0
  Conclusion: CDDA 100%
  Signature: 1BEE109F52D7AC6B52A9CF9B3F4C4B586E7228C1
Детали торрента:
Название:Doro - 2Albums+EP (2012) [FLAC|Lossless]<Heavy Metal>
Дата добавления:17 Июл 2013 13:14:17
Размер:1,64 GB
Раздают:
Качают:0
Форум:Metal (Lossless)

All rights reserved © 2015-2018