TORRENTS43.COM

Скачать Призрачный рейс / 407 Dark Flight 3D (2012) BDRip [1080p] 3D [Горизонтальная анаморфная стереопара]


Призрачный рейс / 407 Dark Flight 3D (2012) BDRip [1080p] 3D [Горизонтальная анаморфная стереопара]
Русское название: 407: Призрачный рейс
Оригинальное название: 407 Dark Flight 3D [1080p] BDRip [Горизонтальная анаморфная стереопара 3D]
Год выпуска: 2012
Жанр: Ужасы, Триллер

Описание фильма:
На самолете творится сверхъестественное — пассажиры на самолете начинают умирать один за другим.

Режиссер: Исара Нади
Актеры: Марша Ватанапанич, Питер Найт, Парамей Ноиам, Намо Тонкумнерд ...

Продолжительность: 01:44:37
Перевод: Двуголосый закадровый
Автор перевода: den904, DeadSno
Язык субтитров: нет



Дата мировой премьеры: 22 марта 2012

Видеокодек: MPEG-4 AVC/H.264
Битрейт видео: ~10,6 Мбит/сек
Размер кадра: 1920x1080
Качество видео: BDRip
Аудиокодек: AC3
Битрейт аудио: 384 Кбит/сек
Сэмпл:http://multi-up.com/766485

Media Info:

Общее
Уникальный идентификатор : 235752613725585248228606311205711258924 (0xB15C4D44593AECEDA95EB70238D2252C)
Полное имя : H:\my films\407.Dark.Flight.2012.3D.mkv
Формат : Matroska
Версия формата : Version 2
Размер файла : 8,22 Гбайт
Продолжительность : 1 ч. 44 м.
Общий поток : 11,2 Мбит/сек
Дата кодирования : UTC 2012-09-24 16:12:23
Программа кодирования : mkvmerge v4.4.0 ('Die Wiederkehr') сборка от Oct 31 2010 21:52:48
Библиотека кодирования : libebml v1.0.0 + libmatroska v1.0.0

Видео
Идентификатор : 1
Формат : AVC
Формат/Информация : Advanced Video Codec
Профиль формата : High@L4.1
Параметр CABAC формата : Да
Параметр ReFrames формата : 3 кадра
Параметр GOP формата : M=5, N=24
Режим смешивания : Header stripping
Идентификатор кодека : V_MPEG4/ISO/AVC
Продолжительность : 1 ч. 44 м.
Битрейт : 10,6 Мбит/сек
Ширина : 1920 пикселей
Высота : 1080 пикселей
Соотношение сторон : 16:9
Режим частоты кадров : Постоянный
Частота кадров : 23,976 кадра/сек
Цветовое пространство : YUV
Субдискретизация насыщенности : 4:2:0
Битовая глубина : 8 бит
Тип развёртки : Прогрессивная
Бит/(Пиксели*Кадры) : 0.214
Размер потока : 7,77 Гбайт (95%)
Библиотека кодирования : x264 core
Default : Да
Forced : Нет
Основные цвета : BT.709
Характеристики трансфера : BT.709
Коэффициенты матрицы : BT.709

Аудио
Идентификатор : 2
Формат : AC-3
Формат/Информация : Audio Coding 3
Расширение режима : CM (complete main)
Параметр Endianness формата : Big
Режим смешивания : Header stripping
Идентификатор кодека : A_AC3
Продолжительность : 1 ч. 44 м.
Вид битрейта : Постоянный
Битрейт : 384 Кбит/сек
Каналы : 6 каналов
Расположение каналов : Front: L C R, Side: L R, LFE
Частота : 48,0 КГц
Битовая глубина : 16 бит
Метод сжатия : С потерями
Размер потока : 287 Мбайт (3%)
Язык : Russian
Default : Да
Forced : Нет
Скриншоты:


Смотреть Online

http://moonwalk.cc/video/35bb585415b02424/iframe
Детали торрента:
Название:Призрачный рейс / 407 Dark Flight 3D (2012) BDRip [1080p] 3D [Горизонтальная анаморфная стереопара]
Дата добавления:25 Сен 2012 14:58:10
Размер:8,22 GB
Раздают:1
Качают:0
Форум:Азиатское кино (3D)

All rights reserved © 2015-2018