TORRENTS43.COM

Скачать Загадки Вселенной. За горизонтом времени (2012) SATRip (16+)


Загадки Вселенной. За горизонтом времени (2012) SATRip (16+)
Русское название: Загадки Вселенной. За горизонтом времени
Режиссер / Телекомпания: РЕН
Год выпуска: 2012
Жанр: Документальный

Описание:
Некоторые ученые полагают: на все происходящее на Земле оказывают влияние параллельные миры. Именно там осуществляются варианты развития человечества. Но в то время как физики только предполагают существование параллельных миров, герои программы наблюдают их собственными глазами. Кому им это удалось? И что об этом думает официальная наука?

Продолжительность: 00:50:40
Качество видео: SATRip
Видео: MPEG4, DivX 5, 768x576 (16:9), 25.000 fps, 1 800 Kbps (0.163 bit/pixel)
Аудио: MP3, 44.1 KHz, 2 ch, 128 Kbps, CBR

MI

General
Complete name : D:\Рипы\Zagadki Vselennoj. Za gorizontom vremeni(2012).torrents43.comTRip.avi
Format : AVI
Format/Info : Audio Video Interleave
File size : 703 MiB
Duration : 50mn 40s
Overall bit rate : 1 940 Kbps
Writing application : Lavf51.12.1
Writing library : VirtualDub build 34753/release

Video
ID : 0
Format : MPEG-4 Visual
Format profile : Simple@L1
Format settings, BVOP : No
Format settings, QPel : No
Format settings, GMC : No warppoints
Format settings, Matrix : Default (H.263)
Codec ID : DX50
Codec ID/Hint : DivX 5
Duration : 50mn 40s
Bit rate : 1 800 Kbps
Width : 768 pixels
Height : 576 pixels
Display aspect ratio : 16:9
Frame rate : 25.000 fps
Color space : YUV
Chroma subsampling : 4:2:0
Bit depth : 8 bits
Scan type : Progressive
Compression mode : Lossy
Bits/(Pixel*Frame) : 0.163
Stream size : 653 MiB (93%)
Writing library : Lavc51.40.4

Audio
ID : 1
Format : MPEG Audio
Format version : Version 1
Format profile : Layer 3
Mode : Joint stereo
Mode extension : MS Stereo
Codec ID : 55
Codec ID/Hint : MP3
Duration : 50mn 40s
Bit rate mode : Constant
Bit rate : 128 Kbps
Channel(s) : 2 channels
Sampling rate : 44.1 KHz
Compression mode : Lossy
Stream size : 46.4 MiB (7%)
Alignment : Aligned on interleaves
Interleave, duration : 26 ms (0.65 video frame)
Interleave, preload duration : 522 ms





Детали торрента:
Название:Загадки Вселенной. За горизонтом времени (2012) SATRip (16+)
Дата добавления:01 Окт 2012 13:11:49
Размер:703 MB
Раздают:
Качают:0
Форум:Непознанное и сверхъестественное

All rights reserved © 2015-2018