TORRENTS43.COM

Скачать Непознанное / Ноев ковчег (24.09.2012) SATRip


Непознанное / Ноев ковчег (24.09.2012) SATRip
Русское название: Непознанное
Оригинальное название: Ноев ковчег
Режиссер / Телекомпания: ТВ-З
Год выпуска: 24.09.2012
Жанр: Документальный

Описание:
Все знают библейскую легенду о Ное, чей ковчег принял на борт семью Ноя и по паре всех живых существ на земле, чтобы спасти их от великого потопа. Многие задумываются над тем, это всего лишь легенда, или подобное происходило на самом деле? Попробуем ответить на этот вопрос.

Продолжительность: 00:47:00

Видеокодек: Xvid
Битрейт видео: ~1500 Кбит/с
Размер кадра: 720x420
Качество видео: SATRip
Аудиокодек: MP3
Битрейт аудио: 128 Кбит/с

MI

Общее
Полное имя : E:\Doc.filmi\неопознаное\Nepoznannoe.(13.vupysk).(24.09.2012).XviD.SATRip.[torrents43.com].avi
Формат : AVI
Формат/Информация : Audio Video Interleave
Размер файла : 561 Мбайт
Продолжительность : 47 м.
Общий поток : 1635 Кбит/сек
Программа кодирования : TMPGEnc Video Mastering Works 5 Version. 5.0.6.38
Библиотека кодирования : TMPGEnc Video Mastering Works 5 Version. 5.0.6.38
Правообладатель : Shuriman

Видео
Идентификатор : 0
Формат : MPEG-4 Visual
Профиль формата : Simple@L1
Параметр BVOP формата : Нет
Параметр QPel формата : Нет
Параметр GMC формата : Без точки перехода
Параметр матрицы формата : Default (H.263)
Идентификатор кодека : XVID
Идентификатор кодека/Подсказка : XviD
Продолжительность : 47 м.
Битрейт : 1499 Кбит/сек
Ширина : 720 пикселей
Высота : 420 пикселей
Соотношение сторон : 1,714
Частота кадров : 25,000 кадров/сек
Цветовое пространство : YUV
Субдискретизация насыщенности : 4:2:0
Битовая глубина : 8 бит
Тип развёртки : Прогрессивная
Метод сжатия : С потерями
Бит/(Пиксели*Кадры) : 0.198
Размер потока : 514 Мбайт (92%)
Библиотека кодирования : Lavc52.41.0

Аудио
Идентификатор : 1
Формат : MPEG Audio
Версия формата : Version 1
Профиль формата : Layer 3
Режим : Joint stereo
Расширение режима : MS Stereo
Идентификатор кодека : 55
Идентификатор кодека/Подсказка : MP3
Продолжительность : 47 м.
Вид битрейта : Постоянный
Битрейт : 128 Кбит/сек
Каналы : 2 канала
Частота : 48,0 КГц
Метод сжатия : С потерями
Размер потока : 43,9 Мбайт (8%)
Выравнивание : Соединение по промежуткам
Продолжительность промежутка : 250 мс. (6,25 видеокадров)
Время предзагрузки промежутка : 192 мс.
Скриншоты:





Телепроект "Непознанное" на NoNaMe-Club.ru

Детали торрента:
Название:Непознанное / Ноев ковчег (24.09.2012) SATRip
Дата добавления:06 Окт 2012 16:28:02
Размер:561 MB
Раздают:
Качают:0
Форум:Непознанное и сверхъестественное

All rights reserved © 2015-2018