TORRENTS43.COM

Скачать Средство Макропулоса (1978) DVDRip


Средство Макропулоса (1978) DVDRip
Русское название: Средство Макропулоса
Серий 2
Год выпуска: 1978
Жанр: Комедия

Описание фильма:
По одноимённой пьесе К. Чапека в постановке Государственного академического Малого театра СССР.
Средство Макропулоса – эликсир долголетия, возможность обладания которым становится для героев пьесы испытанием их человеческой состоятельности. Спектакль завершается несколько неожиданно: бессмертие, оказывается, не так уж заманчиво, и герои спектакля не отваживаются воспользоваться эликсиром.

Режиссер: Владимир Монахов, Майя Маркова
Актеры: Нелли Корниенко, Владимир Кенигсон, Эдуард Марцевич, Александр Овчинников, Евгений Весник, Евгения Глушенко, Галина Скоробогатова, Сергей Конов, Аркадий Смирнов

Продолжительность: 01:16:52 + 00:48:57



Видеокодек: Xvid
Битрейт видео: ~2067 Кбит/сек
Размер кадра: 704x528
Качество видео: DVDRip
Аудиокодек: AC3 2.0
Битрейт аудио: 256 Кбит/сек

Серия 1:

MediaInfo:

Общее
Полное имя : G:\new 092012\!102\Средство Макропулоса\Средство Макропулоса\sredstvo.makropulosa1.avi
Формат : AVI
Формат/Информация : Audio Video Interleave
Размер файла : 1,25 Гбайт
Продолжительность : 1 ч. 16 м.
Общий поток : 2332 Кбит/сек
Программа кодирования : VirtualDubModRus 1.5.10.2 (build 2542/release)
Библиотека кодирования : Boilsoft AVI tool build 30012/release

Видео
Идентификатор : 0
Формат : MPEG-4 Visual
Параметр BVOP формата : 1
Параметр QPel формата : Нет
Параметр GMC формата : Без точки перехода
Параметр матрицы формата : Default (H.263)
Режим смешивания : Сжатый битовый поток
Идентификатор кодека : DX50
Идентификатор кодека/Подсказка : DivX 5
Продолжительность : 1 ч. 16 м.
Битрейт : 2067 Кбит/сек
Ширина : 704 пикселя
Высота : 528 пикселей
Соотношение сторон : 4:3
Частота кадров : 25,000 кадров/сек
Цветовое пространство : YUV
Субдискретизация насыщенности : 4:2:0
Битовая глубина : 8 бит
Тип развёртки : Прогрессивная
Метод сжатия : С потерями
Бит/(Пиксели*Кадры) : 0.222
Размер потока : 1,11 Гбайт (89%)
Библиотека кодирования : DivX 6.8.3-6.8.4 (UTC 2008-06-07)

Аудио
Идентификатор : 1
Формат : AC-3
Формат/Информация : Audio Coding 3
Расширение режима : CM (complete main)
Параметр Endianness формата : Big
Идентификатор кодека : 2000
Продолжительность : 1 ч. 16 м.
Вид битрейта : Постоянный
Битрейт : 256 Кбит/сек
Каналы : 2 канала
Расположение каналов : Front: L R
Частота : 48,0 КГц
Битовая глубина : 16 бит
Метод сжатия : С потерями
Размер потока : 141 Мбайт (11%)
Выравнивание : Соединение по промежуткам
Продолжительность промежутка : 40 мс. (1,00 видеокадр)
Время предзагрузки промежутка : 512 мс.
Серия 2:

MediaInfo:

Общее
Полное имя : G:\new 092012\!102\Средство Макропулоса\Средство Макропулоса\sredstvo.makropulosa2.avi
Формат : AVI
Формат/Информация : Audio Video Interleave
Размер файла : 812 Мбайт
Продолжительность : 48 м.
Общий поток : 2330 Кбит/сек
Программа кодирования : VirtualDubModRus 1.5.10.2 (build 2542/release)
Библиотека кодирования : Boilsoft AVI tool build 30012/release

Видео
Идентификатор : 0
Формат : MPEG-4 Visual
Параметр BVOP формата : 1
Параметр QPel формата : Нет
Параметр GMC формата : Без точки перехода
Параметр матрицы формата : Default (H.263)
Режим смешивания : Сжатый битовый поток
Идентификатор кодека : DX50
Идентификатор кодека/Подсказка : DivX 5
Продолжительность : 48 м.
Битрейт : 2064 Кбит/сек
Ширина : 704 пикселя
Высота : 528 пикселей
Соотношение сторон : 4:3
Частота кадров : 25,000 кадров/сек
Цветовое пространство : YUV
Субдискретизация насыщенности : 4:2:0
Битовая глубина : 8 бит
Тип развёртки : Прогрессивная
Метод сжатия : С потерями
Бит/(Пиксели*Кадры) : 0.222
Размер потока : 720 Мбайт (89%)
Библиотека кодирования : DivX 6.8.3-6.8.4 (UTC 2008-06-07)

Аудио
Идентификатор : 1
Формат : AC-3
Формат/Информация : Audio Coding 3
Расширение режима : CM (complete main)
Параметр Endianness формата : Big
Идентификатор кодека : 2000
Продолжительность : 48 м.
Вид битрейта : Постоянный
Битрейт : 256 Кбит/сек
Каналы : 2 канала
Расположение каналов : Front: L R
Частота : 48,0 КГц
Битовая глубина : 16 бит
Метод сжатия : С потерями
Размер потока : 89,3 Мбайт (11%)
Выравнивание : Соединение по промежуткам
Продолжительность промежутка : 40 мс. (1,00 видеокадр)
Время предзагрузки промежутка : 512 мс.
Скриншоты:
Детали торрента:
Название:Средство Макропулоса (1978) DVDRip
Дата добавления:01 Ноя 2012 19:49:51
Размер:2,04 GB
Раздают:
Качают:0
Форум:Театр

All rights reserved © 2015-2018