TORRENTS43.COM

Скачать Спящий лев (1965) DVDRip


Спящий лев (1965) DVDRip
Русское название: Спящий лев
Год выпуска: 1965
Жанр: Комедия

Описание фильма:
Замещая инкассатора, кассир столичного банка Цветков - робкий, нерешительный служака, любитель рыцарских романов - накануне своего сорокалетия весьма успешно задерживает двух грабителей. Герой становится более уверенным в себе и вскоре принимается за разоблачительную акцию против нечистоплотного сотрудника банка Телегина

Режиссер: Александр Файнциммер
Актеры: Константин Сорокин, Сергей Мартинсон, Наталья Кустинская, Юрий Белов, Сергей Филиппов, Тамара Носова, Михаил Пуговкин, Эммануил Геллер, Алексей Смирнов, Л. Иванова (II)

Продолжительность: 01:10:00



Видеокодек: DivX 5
Битрейт видео: ~1821 Кбит/сек
Размер кадра: 720x352
Качество видео: DVDRip
Аудиокодек: AC3 2.0
Битрейт аудио: 384 Кбит/сек

MediaInfo:

Общее
Полное имя : G:\new 092012\!102\Спящий лев\RIP\spjaschij.lev.avi
Формат : AVI
Формат/Информация : Audio Video Interleave
Размер файла : 1,09 Гбайт
Продолжительность : 1 ч. 10 м.
Общий поток : 2214 Кбит/сек
Программа кодирования : For torrents43.com only 01112012
Библиотека кодирования : VirtualDubMod build 2542/release

Видео
Идентификатор : 0
Формат : MPEG-4 Visual
Параметр BVOP формата : Да
Параметр QPel формата : Нет
Параметр GMC формата : Без точки перехода
Параметр матрицы формата : Default (H.263)
Идентификатор кодека : DX50
Идентификатор кодека/Подсказка : DivX 5
Продолжительность : 1 ч. 10 м.
Битрейт : 1821 Кбит/сек
Ширина : 720 пикселей
Высота : 352 пикселя
Соотношение сторон : 2,045
Частота кадров : 25,000 кадров/сек
Цветовое пространство : YUV
Субдискретизация насыщенности : 4:2:0
Битовая глубина : 8 бит
Тип развёртки : Прогрессивная
Метод сжатия : С потерями
Бит/(Пиксели*Кадры) : 0.287
Размер потока : 921 Мбайт (82%)
Библиотека кодирования : DivX 6.8.3-6.8.4 (UTC 2008-06-07)

Аудио
Идентификатор : 1
Формат : AC-3
Формат/Информация : Audio Coding 3
Расширение режима : CM (complete main)
Параметр Endianness формата : Big
Идентификатор кодека : 2000
Продолжительность : 1 ч. 10 м.
Вид битрейта : Постоянный
Битрейт : 384 Кбит/сек
Каналы : 2 канала
Расположение каналов : Front: L R
Частота : 48,0 КГц
Битовая глубина : 16 бит
Метод сжатия : С потерями
Размер потока : 194 Мбайт (17%)
Выравнивание : Соединение по промежуткам
Продолжительность промежутка : 40 мс. (1,00 видеокадр)
Время предзагрузки промежутка : 512 мс.
Скриншоты:
Детали торрента:
Название:Спящий лев (1965) DVDRip
Дата добавления:05 Ноя 2012 14:41:06
Размер:1,09 GB
Раздают:
Качают:0
Форум:Отечественная Классика (HD*Rip/LQ, DVDRip, SATRip, VHSRip)

All rights reserved © 2015-2018