TORRENTS43.COM

Скачать Чистая правда / The Whole Truth (1923) DVDRip


Чистая правда / The Whole Truth (1923) DVDRip
Русское название: Чистая правда
Оригинальное название: The Whole Truth
Год выпуска: 1923
Жанр: Короткометражный, Комедия
Производство: США, Hal Roach Studios

Описание фильма:
Все действие фильм происходит в суде, куда подала на развод жена Стэна, мотивируя это тем, что того не было дома целый месяц. Стэн начинает давать показания. А какой он рассказчик!

Режиссер: Ральф Седер
Актеры: Стэн Лорел, Джеймс Финлейсон, Эрл Мохан, Хелен Гилмор, Джек Экройд, Уоллес Хоу, Чарльз Стивенсон

Продолжительность: 00:10:12
Перевод: Немое кино
Язык субтитров: Русский
Вид субтитров: Вшитые



Дата мировой премьеры: 04 ноября 1923

Видеокодек: Xvid
Битрейт видео: ~2016 Кбит/с
Размер кадра: 640x464
Качество видео: DVDRip
Аудио: MP3, 2 ch, 160 Кбит/с

MediaInfo

Общее
Полное имя : K:\Up\кино\Чистая правда\The.Whole.Truth.1923.nnm.rus.avi
Формат : AVI
Формат/Информация : Audio Video Interleave
Размер файла : 159 Мбайт
Продолжительность : 10 м.
Общий поток : 2185 Кбит/сек
Программа кодирования : VirtualDubMod 1.5.10.2 (build 2540/release)
Библиотека кодирования : VirtualDubMod build 2540/release

Видео
Идентификатор : 0
Формат : MPEG-4 Visual
Профиль формата : Advanced Simple@L5
Параметр BVOP формата : 2
Параметр QPel формата : Нет
Параметр GMC формата : Без точки перехода
Параметр матрицы формата : Default (MPEG)
Идентификатор кодека : XVID
Идентификатор кодека/Подсказка : XviD
Продолжительность : 10 м.
Битрейт : 2016 Кбит/сек
Ширина : 640 пикселей
Высота : 464 пикселя
Соотношение сторон : 1,379
Частота кадров : 23,976 кадра/сек
Цветовое пространство : YUV
Субдискретизация насыщенности : 4:2:0
Битовая глубина : 8 бит
Тип развёртки : Прогрессивная
Метод сжатия : С потерями
Бит/(Пиксели*Кадры) : 0.283
Размер потока : 147 Мбайт (92%)
Библиотека кодирования : XviD 1.1.2 (UTC 2006-11-01)

Аудио
Идентификатор : 1
Формат : MPEG Audio
Версия формата : Version 1
Профиль формата : Layer 3
Режим : Joint stereo
Расширение режима : MS Stereo
Идентификатор кодека : 55
Идентификатор кодека/Подсказка : MP3
Продолжительность : 10 м.
Вид битрейта : Постоянный
Битрейт : 160 Кбит/сек
Каналы : 2 канала
Частота : 48,0 КГц
Метод сжатия : С потерями
Размер потока : 11,7 Мбайт (7%)
Выравнивание : Соединение по промежуткам
Продолжительность промежутка : 42 мс. (1,00 видеокадр)
Время предзагрузки промежутка : 504 мс.
Скриншоты:





Детали торрента:
Название:Чистая правда / The Whole Truth (1923) DVDRip
Дата добавления:06 Ноя 2012 13:22:55
Размер:159 MB
Раздают:
Качают:0
Форум:Старые Зарубежные Фильмы (HD*Rip/LQ, DVDRip, SATRip, VHSRip)

All rights reserved © 2015-2018