TORRENTS43.COM

Скачать Дама в очках и с ружьем в автомобиле / The Lady in the Car with Glasses and a Gun (1970) VHSRip


Дама в очках и с ружьем в автомобиле / The Lady in the Car with Glasses and a Gun (1970) VHSRip

Русское название: Дама в очках и с ружьем в автомобиле
Оригинальное название: The Lady in the Car with Glasses and a Gun
Год выпуска: 1970
Страна: Франция, США | Lira Films, Columbia Pictures Corporation
Жанр: Драма


Описание фильма:
Дани Лонго, героиню Жапризо, на каждом шагу подстерегают опасности двоякого свойства — как внешнего, так и внутреннего, таящиеся в ней самой… Дани берет машину своего босса и отправляется на отдых к Средиземному морю, как ни странно, повторяя путешествие, которого она еще ни разу не совершала, eе узнают люди, которых она еще не встречала А когда в багажнике машины обнаруживается труп, дело принимает серьезный оборот…

Режиссер: Анатоль Литвак
Актеры: Саманта Эггар, Оливер Рид, Джон МакЭнери, Стефани Одран, Билли Диксон, Бернард Фрессон, Марсель Боззюффи, Филипп Нико, Мартин Келли, Жак Фаббри, Жак Легра, Лиза Жуве, Андре Умански, Ив Пиньо, Луиза Риотон, Мария Мерико, Рауль Дэлфоз, Пауле Ноэль, Филипп Баронне, Филипп Марёй ...

Продолжительность: 01:37:27
Перевод: Одноголосый закадровый (matros)



Дата мировой премьеры: 22 октября 1970

Видеокодек: Xvid
Битрейт видео: ~2444 Кбит/сек
Размер кадра: 720*392
Качество видео: VHSRip
Аудиокодек: MP3 | MP3
Аудио #1:112 Кбит/сек, 2 канала, русский
Аудио #2: 128 Кбит/сек, 2 канала, английский

MediaInbfo:

Код:
Общее
Полное имя                               : :\\The Lady In The Car With Glasses and a Gun (1970).avi
Формат                                   : AVI
Формат/Информация                        : Audio Video Interleave
Размер файла                             : 1,84 Гбайт
Продолжительность                        : 1 ч. 37 м.
Общий поток                              : 2699 Кбит/сек
Программа кодирования                    : VirtualDubMod 1.5.10.2 (build 2540/release)
Библиотека кодирования                   : VirtualDubMod build 2540/release

Видео
Идентификатор                            : 0
Формат                                   : MPEG-4 Visual
Профиль формата                          : Advanced Simple@L5
Параметр BVOP формата                    : 1
Параметр QPel формата                    : Нет
Параметр GMC формата                     : Без точки перехода
Параметр матрицы формата                 : Default (MPEG)
Режим смешивания                         : Сжатый битовый поток
Идентификатор кодека                     : XVID
Идентификатор кодека/Подсказка           : XviD
Продолжительность                        : 1 ч. 37 м.
Битрейт                                  : 2444 Кбит/сек
Ширина                                   : 720 пикселей
Высота                                   : 392 пикселя
Соотношение сторон                       : 1,85:1
Частота кадров                           : 25,000 кадров/сек
Цветовое пространство                    : YUV
Субдискретизация насыщенности            : 4:2:0
Битовая глубина                          : 8 бит
Тип развёртки                            : Прогрессивная
Метод сжатия                             : С потерями
Бит/(Пиксели*Кадры)                      : 0.346
Размер потока                            : 1,66 Гбайт (91%)
Библиотека кодирования                   : XviD 1.2.1 (UTC 2008-12-04)

Аудио #1
Идентификатор                            : 1
Формат                                   : MPEG Audio
Версия формата                           : Version 1
Профиль формата                          : Layer 3
Режим                                    : Joint stereo
Расширение режима                        : MS Stereo
Идентификатор кодека                     : 55
Идентификатор кодека/Подсказка           : MP3
Продолжительность                        : 1 ч. 37 м.
Вид битрейта                             : Постоянный
Битрейт                                  : 112 Кбит/сек
Каналы                                   : 2 канала
Частота                                  : 48,0 КГц
Метод сжатия                             : С потерями
Размер потока                            : 78,1 Мбайт (4%)
Выравнивание                             : Соединение по промежуткам
Продолжительность промежутка             : 40  мс. (1,00 видеокадр)
Время предзагрузки промежутка            : 504  мс.

Аудио #2
Идентификатор                            : 2
Формат                                   : MPEG Audio
Версия формата                           : Version 1
Профиль формата                          : Layer 3
Режим                                    : Joint stereo
Расширение режима                        : MS Stereo
Идентификатор кодека                     : 55
Идентификатор кодека/Подсказка           : MP3
Продолжительность                        : 1 ч. 37 м.
Вид битрейта                             : Постоянный
Битрейт                                  : 128 Кбит/сек
Каналы                                   : 2 канала
Частота                                  : 48,0 КГц
Метод сжатия                             : С потерями
Размер потока                            : 89,2 Мбайт (5%)
Выравнивание                             : Соединение по промежуткам
Продолжительность промежутка             : 40  мс. (1,00 видеокадр)
Время предзагрузки промежутка            : 504  мс.
Библиотека кодирования                   : LAME3.97
Настройки программы                      : -m j -V 4 -q 2 -lowpass 17 -b 128
Скриншоты:


Смотреть Online

http://moonwalk.cc/video/da47c67f0bbf71f8/iframe
Детали торрента:
Название:Дама в очках и с ружьем в автомобиле / The Lady in the Car with Glasses and a Gun (1970) VHSRip
Дата добавления:07 Ноя 2012 23:12:37
Размер:1,84 GB
Раздают:1
Качают:0
Форум:Зарубежная Классика (HD*Rip/LQ, DVDRip, SATRip, VHSRip)

All rights reserved © 2015-2018