TORRENTS43.COM

Скачать Классический китайский танец / Classical Chinese Dance (2012) HDTVRip 1080p


Классический китайский танец / Classical Chinese Dance (2012) HDTVRip
Русское название: Классический китайский танец
Оригинальное название: Classical Chinese Dance
Год выпуска: 2012
Жанр: танцевальное шоу

Описание фильма:
Труппа Shen Yun Performing Arts была создана в 2006 году с целью возрождения 5000-летней боговдохновенной китайской культуры, большая часть которой была разрушена в результате 60-летнего правления коммунистической партии в Китае.
Shen Yun Performing Arts представляет классический китайский танец и музыку в восхитительно ярких номерах.
Это динамичное и выразительное искусство, основанное на 5000-летней истории Китая.
Древние легенды и исторические фигуры оживают на сцене в прыжках, вращениях и утонченных движениях артистов.
Это видео откроет для вас Shen Yun Performing Arts и то, как протекает процесс подготовки концерта.
Все исполнители и участники коллектива Shen Yun Performing Arts являются последователями самосовершенствования по системе Фалунь Дафа Фалуньгун.

Доп. информация

Мастер Ли Хунчжи является основателем Фалунь Дафа (дословный перевод: Фалунь — «колесо Закона»; Дафа — «Великий Закон»), также называется Фалуньгун — система совершенствования души и тела, которая была впервые представлена широкой общественности в Китае в 1992 году в форме традиционной китайской оздоровительной практики цигун.
В последствии на основе лекций Мастера была издана книга.

В основу учения Фалунь Дафа, которое рассказывает о Вселенной и месте в ней человека, положен универсальный принцип «Истина Доброта Терпение». Практика также включает в себя пять комплексов энергетических упражнений для очищения и преобразования тела.
Кроме полного оздоровления физического тела, практикуя по Фалуньгун можно достичь высокой степени нравственности, освобождения от стрессов, раскрытия энергии, спокойствия ума и высокого духовного уровня вплоть до состояния Просветления.

Практика Фалуньгун полностью адаптирована к современной жизни.
Нет ограничений в возрасте, времени и месте занятий.
Занятия полностью бесплатные, нет взносов и пожертвований.
Нет регистрации, процедуры вступления и выхода.
Фалуньгун не преследует политических и коммерческих целей.
Нет расовых, национальных и культурных ограничений.

В настоящее время практикой Фалунь Дафа занимаются десятки миллионов человек в 111 странах и 3 автономных районах (Тайване, Гонконге и Макао).

Работы Мастера Ли Хунчжи переведены более чем на 30 языков, включая основные европейские и русский.

Более двух лет Учитель Ли ездил по всему Китаю, где под эгидой местных Ассоциаций исследования цигун и при поддержке правительственных ведомств провёл более 50 серий лекций по теории и практике Фалуньгун, которые посетили более 100 тысяч человек.
В 1993 году на Восточной выставке здоровья в Пекине Мастеру Ли Хунчжи присвоили звание «Народный мастер цигун», а также вручили самую высокую награду «За лучшие достижения в области нестандартных наук» и «Специальную золотую премию».

В 1995 году Мастер Ли Хунчжи начал проводить лекции за рубежом, получив приглашения посетить Швецию, Францию, Германию, США, Канаду, Австралию и Тайвань.

В 1996 году основной труд Учителя Ли, книга «Чжуань Фалунь» попала в десятку бестселлеров Пекина, по версии издания «Пекинская молодёжь» (Beijing Youth Daily).

В 1998 году только в одном Китае практикой Фалуньгун занималось около 100 миллионов человек.
— В 2000 и 2001 году Мастера Ли Хунчжи выдвигали на соискание Нобелевской премии мира;
— В 2001 году он был награждён премией «Дома свободы» (Freedom House) и стал номинантом учреждённой Европарламентом Премии имени Сахарова «За свободу мысли»;
— В 2007 году был назван гением и занял 12-ю позицию в рейтинге «100 гениев современности», составленном международной консалтинговой компанией Creators Synectics;
— В 2009 году был награждён премией «Духовный лидер — 2009», учреждённой Азиатско-тихоокеанским фондом защиты прав человека.

В настоящее время Фалунь Дафа и Мастер Ли Хунчжи получили более трёх тысяч наград, дипломов правительственных грамот и официальных писем благодарности и поддержки в более 20 странах, в том числе 5 наград в континентальном Китае до репрессий и 10 наград в Тайване.
Режиссер: Ли Хунчжи (Li Hongzhi), Суэ Го (хореограф)
Актеры: И Цао, Гу Юнь, Мишель Жэнь, Юнчиа Чэнь

Продолжительность: 00:18:29
Перевод: Одноголосый закадровый
Язык: русский
Язык субтитров: русские
Вид субтитров: Вшитые

Видеокодек:MPEG-4 H.264
Битрейт видео: ~4077 Kb/s
Размер кадра: 1920x1080 (16:9)
Качество видео: HDTVRip 1080p
Аудиокодек: AAC LC
Битрейт аудио: 192 Kbps CBR
Сэмпл: Ссылка

Прошу скачавших оставаться на раздаче, по возможности, как можно дольше!



General
Complete name : ShenYun_Klassicheskiy_Kitaiskiy_Tanec_RUS_HD_1080p.mp4
Format : MPEG-4
Format profile : Base Media / Version 2
Codec ID : mp42
File size : 565 MiB
Duration : 18mn 29s
Overall bit rate mode : Variable
Overall bit rate : 4 272 Kbps

Video
ID : 1
Format : AVC
Format/Info : Advanced Video Codec
Format profile :
High@L4.0
Format settings, CABAC : Yes
Format settings, ReFrames : 1 frame
Format settings, GOP : M=1, N=60
Codec ID : avc1
Codec ID/Info : Advanced Video Coding
Duration : 18mn 29s
Bit rate : 4 077 Kbps
Maximum bit rate : 15.6 Mbps
Width : 1 920 pixels
Height : 1 080 pixels
Display aspect ratio : 16:9
Frame rate mode : Constant
Frame rate : 29.970 fps
Color space : YUV
Chroma subsampling : 4:2:0
Bit depth : 8 bits
Scan type : Progressive
Bits/(Pixel*Frame) : 0.066
Stream size : 539 MiB (95%)

Audio
ID : 2
Format : AAC
Format/Info : Advanced Audio Codec
Format profile : LC
Codec ID : 40
Duration : 18mn 29s
Bit rate mode : Variable
Bit rate : 192 Kbps
Maximum bit rate : 201 Kbps
Channel(s) : 2 channels
Channel positions : Front: L R
Sampling rate : 44.1 KHz
Compression mode : Lossy
Stream size : 25.4 MiB (4%)
Скриншоты:


< Скачать >
Детали торрента:
Название:Классический китайский танец / Classical Chinese Dance (2012) HDTVRip 1080p
Дата добавления:23 Ноя 2012 12:17:14
Размер:565 MB
Раздают:
Качают:0
Форум:Опера, Балет, Мюзиклы

All rights reserved © 2015-2018