TORRENTS43.COM

Скачать Старец Паисий и я, стоящий вверх ногами (2012) DVDRip


Старец Паисий и я, стоящий вверх ногами (2012) DVDRip

Оригинальное название: Старец Паисий и я, стоящий вверх ногами
Год выпуска: 2012
Производство: Россия | Телеканал "Культура", студия "Фишка-фильм"
Жанр: Притча
Перевод: Не требуется

Режиссер: Александр Столяров
Актеры: Сергей Соколов (Паисий), Матвей Столяров (Паисий в детстве), Даниил Усачев(Петр), Александр Столяров (пономарь), Альберт Арнаутов, Юрий Косин, Юлия Большинская, Руслан Сокольник, Михаил Болгов, Ирина Гавришева, Елена Лазович, Константин Семененко, Лина Будник ....

Описание фильма:
"Исихия" - безмолвие (по-гречески). Монашество - путь к безмолвию. Наш герой - монах. У него есть прототип - старец Паисий, греческий монах, ныне святой, скончавшийся в конце ХХ века на Афоне. Другой монах - Христодул Агиорит - записал рассказы о нём. А мы написали сценарий православной комедии, в которой злу противостоят два монаха - старый и молодой. Это почти анекдоты. В них наш главный герой простоват (Швейк в рясе), и это при том, что настоящий старец Паисий сам написал три богословские книги. В нашем фильме герой действует - побеждает и попадает впросак, - но ни на миг не покидает его исихия. И всё видимое и слышимое, всё то, что происходит с ним, - случайные лучи огромной тайны. Второй наш герой - молодой монах, он всё время рядом со старцем. На глазах старца он сомневается и утверждается в чистоте любви. Последние дни в жизни старца и первые дни монастырской жизни молодого монаха охватывает наш фильм. Паисий умирает, молодой монах в огорчении покидает монастырь. Кажется, что всё кончилось. Но вдруг - чудо, опять чудо, их много в нашем фильме, зачастую они обыкновенны, как наша жизнь, но она и есть - чудо.


Продолжительность: 01:21:14
Качество видео: DVDRip
Видеокодек: Xvid
Битрейт видео: ~2197 Кбит/сек
Размер кадра: 704*400
Аудиокодек: AC3 2.0
Битрейт аудио: 192 Кбит/сек

Дополнительная информация:

На 43-й минуте пропадает звук на 40 секунд.

MediaInfo:

Код:
Общее
Полное имя                               : :\\Starec.Paisiy.DVDRip.1400.avi
Формат                                   : AVI
Формат/Информация                        : Audio Video Interleave
Размер файла                             : 1,36 Гбайт
Продолжительность                        : 1 ч. 21 м.
Общий поток                              : 2399 Кбит/сек
Программа кодирования                    : VirtualDubMod 1.5.10.3 | www.virtualdub-fr.org || (build 2550/release)
Библиотека кодирования                   : VirtualDubMod build 2550/release

Видео
Идентификатор                            : 0
Формат                                   : MPEG-4 Visual
Профиль формата                          : Advanced Simple@L5
Параметр BVOP формата                    : 1
Параметр QPel формата                    : Нет
Параметр GMC формата                     : Без точки перехода
Параметр матрицы формата                 : Default (MPEG)
Идентификатор кодека                     : XVID
Идентификатор кодека/Подсказка           : XviD
Продолжительность                        : 1 ч. 21 м.
Битрейт                                  : 2197 Кбит/сек
Ширина                                   : 704 пикселя
Высота                                   : 400 пикселей
Соотношение сторон                       : 16:9
Частота кадров                           : 25,000 кадров/сек
Цветовое пространство                    : YUV
Субдискретизация насыщенности            : 4:2:0
Битовая глубина                          : 8 бит
Тип развёртки                            : Прогрессивная
Метод сжатия                             : С потерями
Бит/(Пиксели*Кадры)                      : 0.312
Размер потока                            : 1,25 Гбайт (92%)
Библиотека кодирования                   : XviD 1.2.1 (UTC 2008-12-04)

Аудио
Идентификатор                            : 1
Формат                                   : AC-3
Формат/Информация                        : Audio Coding 3
Расширение режима                        : CM (complete main)
Параметр Endianness формата              : Big
Идентификатор кодека                     : 2000
Продолжительность                        : 1 ч. 21 м.
Вид битрейта                             : Постоянный
Битрейт                                  : 192 Кбит/сек
Каналы                                   : 2 канала
Расположение каналов                     : Front: L R
Частота                                  : 48,0 КГц
Битовая глубина                          : 16 бит
Метод сжатия                             : С потерями
Размер потока                            : 112 Мбайт (8%)
Выравнивание                             : Разделение по промежуткам
Продолжительность промежутка             : 40  мс. (1,00 видеокадр)
Время предзагрузки промежутка            : 500  мс.
Скриншоты:


Детали торрента:
Название:Старец Паисий и я, стоящий вверх ногами (2012) DVDRip
Дата добавления:14 Дек 2012 18:23:48
Размер:1,36 GB
Раздают:1
Качают:1
Форум:Интеллектуальное кино

All rights reserved © 2015-2018