TORRENTS43.COM

Скачать Старец Паисий и я, стоящий вверх ногами (2012) DVD5


Старец Паисий и я, стоящий вверх ногами (2012) DVD5
Русское название: Старец Паисий и я, стоящий вверх ногами
Год выпуска: 2012
Производство: Россия | Телеканал "Культура", студия "Фишка-фильм"
Жанр: Притча
Перевод: Не требуется

Режиссер: Александр Столяров
Актеры: Сергей Соколов (Паисий), Матвей Столяров (Паисий в детстве), Даниил Усачев(Петр), Александр Столяров (пономарь), Альберт Арнаутов, Юрий Косин, Юлия Большинская, Руслан Сокольник, Михаил Болгов, Ирина Гавришева, Елена Лазович, Константин Семененко, Лина Будник ....

Описание фильма:
"Исихия" - безмолвие (по-гречески). Монашество - путь к безмолвию. Наш герой - монах. У него есть прототип - старец Паисий, греческий монах, ныне святой, скончавшийся в конце ХХ века на Афоне. Другой монах - Христодул Агиорит - записал рассказы о нём. А мы написали сценарий православной комедии, в которой злу противостоят два монаха - старый и молодой. Это почти анекдоты. В них наш главный герой простоват (Швейк в рясе), и это при том, что настоящий старец Паисий сам написал три богословские книги. В нашем фильме герой действует - побеждает и попадает впросак, - но ни на миг не покидает его исихия. И всё видимое и слышимое, всё то, что происходит с ним, - случайные лучи огромной тайны. Второй наш герой - молодой монах, он всё время рядом со старцем. На глазах старца он сомневается и утверждается в чистоте любви. Последние дни в жизни старца и первые дни монастырской жизни молодого монаха охватывает наш фильм. Паисий умирает, молодой монах в огорчении покидает монастырь. Кажется, что всё кончилось. Но вдруг - чудо, опять чудо, их много в нашем фильме, зачастую они обыкновенны, как наша жизнь, но она и есть - чудо.

Продолжительность: 01:21:14
Качество видео: DVD5

Видео: MPEG-2, 720x576@1024x576 (PAL 16:9), ~6984 Кбит/сек, 25,000 кадров/сек, Бит/(Пиксели*Кадры): 0.674
Аудиокодек: AC-3, 2 канала (Front: L R), 256 Кбит/сек

DVDInfo:

Код:
Title: Старец Паисий и я, стоящий вверх ногами
Size: 4.15 Gb ( 4 351 412,00 KBytes ) - DVD-5
Enabled regions: 1, 2, 3, 4, 5, 6, 7, 8

VTS_01 :
  Play Length: 01:21:14
  Video: PAL 16:9 (720x576) VBR, Auto Letterboxed
  Audio:
      Not specified (Dolby AC3, 2 ch)

MediaInfo:

Код:
Общее
Полное имя                               : :\\Старец Паисий и я, стоящий вверх ногами\VIDEO_TS\VTS_01_3.VOB
Формат                                   : MPEG-PS
Размер файла                             : 1024 Мбайт
Продолжительность                        : 19 м.
Режим общего битрейта                    : Переменный
Общий поток                              : 7387 Кбит/сек

Видео
Идентификатор                            : 224 (0xE0)
Формат                                   : MPEG Video
Версия формата                           : Version 2
Профиль формата                          : Main@Main
Параметр BVOP формата                    : Да
Параметр матрицы формата                 : Выборочная
Параметр GOP формата                     : M=3, N=15
Продолжительность                        : 19 м.
Вид битрейта                             : Переменный
Битрейт                                  : 6984 Кбит/сек
Максимальный битрейт                     : 8000 Кбит/сек
Ширина                                   : 720 пикселей
Высота                                   : 576 пикселей
Соотношение сторон                       : 16:9
Частота кадров                           : 25,000 кадров/сек
Стандарт вещания                         : PAL
Цветовое пространство                    : YUV
Субдискретизация насыщенности            : 4:2:0
Битовая глубина                          : 8 бит
Тип развёртки                            : Чересстрочная
Порядок развёртки                        : Верхнее поле первое
Метод сжатия                             : С потерями
Бит/(Пиксели*Кадры)                      : 0.674
Размер потока                            : 968 Мбайт (95%)
Основные цвета                           : BT.470-2 System B, BT.470-2 System G
Характеристики трансфера                 : BT.470-2 System B, BT.470-2 System G
Коэффициенты матрицы                     : BT.470-2 System B, BT.470-2 System G

Аудио
Идентификатор                            : 189 (0xBD)-128 (0x80)
Формат                                   : AC-3
Формат/Информация                        : Audio Coding 3
Расширение режима                        : CM (complete main)
Параметр Endianness формата              : Big
Режим смешивания                         : DVD-Video
Продолжительность                        : 19 м.
Вид битрейта                             : Постоянный
Битрейт                                  : 256 Кбит/сек
Каналы                                   : 2 канала
Расположение каналов                     : Front: L R
Частота                                  : 48,0 КГц
Битовая глубина                          : 16 бит
Метод сжатия                             : С потерями
Задержка видео                           : -608 мс.
Размер потока                            : 35,5 Мбайт (3%)

Дополнительная информация:

Призы:
- специальный приз жюри Международного фестиваля кино и телепрограмм "Радонеж - 2012",
- лауреат I конкурса сценариев «Вера, Надежда, Любовь».
- диплом за лучший сценарий Х Международного кинофестиваля православного кино «Покров» - 2012

Дополнительная информация:

На 43-й минуте пропадает звук на 40 секунд. Такой диск. Не обессудьте.
Скриншоты:


Детали торрента:
Название:Старец Паисий и я, стоящий вверх ногами (2012) DVD5
Дата добавления:18 Дек 2012 23:02:06
Размер:4,15 GB
Раздают:2
Качают:0
Форум:Интеллектуальное кино

All rights reserved © 2015-2018