TORRENTS43.COM

Скачать Steve Lukather (ex.Toto) - Transition (2013) [FLAC|Lossless]< Rock>


Steve Lukather (ex.Toto) - Transition (2013)
Год: 2013
Издание: Mascot Records
Каталог№: M-7400-5
Жанр: Rock
Источник (релизер): everyonestares
Сканы: Фронт
Продолжительность: 00:45:56

Кодек: FLAC
Тип рипа: Tracks+.cue
Битрейт: Lossless
Трек лист:
01. Judgement Day (7:17)
02. Creep Motel (5:46)
03. Once Again (4:57)
04. Right the Wrong (6:20)
05. Transition (5:32)
06. Last Man Standing (5:21)
07. Do I Stand Alone (4:10)
08. Rest of the World (4:01)
09. Smile (2:31)

Содержимое индексной карты:

REM GENRE Rock
REM DATE 2013
REM DISCID 7B0AC309
REM COMMENT "ExactAudioCopy v1.0b3"
PERFORMER "Steve Lukather"
TITLE "Transition"
FILE "01 - Judgement Day.flac" WAVE
TRACK 01 AUDIO
TITLE "Judgement Day"
PERFORMER "Steve Lukather"
ISRC NLB931300100
INDEX 01 00:00:00
FILE "02 - Creep Motel.flac" WAVE
TRACK 02 AUDIO
TITLE "Creep Motel"
PERFORMER "Steve Lukather"
ISRC NLB931300101
INDEX 01 00:00:00
FILE "03 - Once Again.flac" WAVE
TRACK 03 AUDIO
TITLE "Once Again"
PERFORMER "Steve Lukather"
ISRC NLB931300102
INDEX 01 00:00:00
TRACK 04 AUDIO
TITLE "Right the Wrong"
PERFORMER "Steve Lukather"
ISRC NLB931300103
INDEX 00 04:54:43
FILE "04 - Right the Wrong.flac" WAVE
INDEX 01 00:00:00
FILE "05 - Transition.flac" WAVE
TRACK 05 AUDIO
TITLE "Transition"
PERFORMER "Steve Lukather"
ISRC NLB931300104
INDEX 01 00:00:00
TRACK 06 AUDIO
TITLE "Last Man Standing"
PERFORMER "Steve Lukather"
ISRC NLB931300105
INDEX 00 05:30:28
FILE "06 - Last Man Standing.flac" WAVE
INDEX 01 00:00:00
TRACK 07 AUDIO
TITLE "Do I Stand Alone"
PERFORMER "Steve Lukather"
ISRC NLB931300106
INDEX 00 05:19:60
FILE "07 - Do I Stand Alone.flac" WAVE
INDEX 01 00:00:00
TRACK 08 AUDIO
TITLE "Rest of the World"
PERFORMER "Steve Lukather"
ISRC NLB931300107
INDEX 00 04:09:63
FILE "08 - Rest of the World.flac" WAVE
INDEX 01 00:00:00
TRACK 09 AUDIO
TITLE "Smile"
PERFORMER "Steve Lukather"
ISRC NLB931300108
INDEX 00 03:58:21
FILE "09 - Smile.flac" WAVE
INDEX 01 00:00:00

Отчёт ЕАС:

Код:

Exact Audio Copy V1.0 beta 3 from 29. August 2011

EAC extraction logfile from 18. January 2013, 9:27

Steve Lukather / Transition

Used drive  : MATSHITADVD+-RW UJ8A7   Adapter: 0  ID: 1

Read mode               : Secure
Utilize accurate stream : Yes
Defeat audio cache      : Yes
Make use of C2 pointers : No

Read offset correction                      : 102
Overread into Lead-In and Lead-Out          : No
Fill up missing offset samples with silence : Yes
Delete leading and trailing silent blocks   : No
Null samples used in CRC calculations       : Yes
Used interface                              : Native Win32 interface for Win NT & 2000
Gap handling                                : Appended to previous track

Used output format              : User Defined Encoder
Selected bitrate                : 128 kBit/s
Quality                         : High
Add ID3 tag                     : No
Command line compressor         : C:\Program Files (x86)\Exact Audio Copy\Flac\flac.exe
Additional command line options : -8 -V -T "ARTIST=%artist%" -T "TITLE=%title%" -T "ALBUM=%albumtitle%" -T "DATE=%year%" -T "TRACKNUMBER=%tracknr%" -T "GENRE=%genre%" -T "PERFORMER=%albuminterpret%" -T "COMPOSER=%composer%" %haslyrics%--tag-from-file=LYRICS="%lyricsfile%"%haslyrics% -T "ALBUMARTIST=%albumartist%" -T "DISCNUMBER=%cdnumber%" -T "TOTALDISCS=%totalcds%" -T "TOTALTRACKS=%numtracks%" -T "COMMENT=%comment%" %source% -o %dest%

TOC of the extracted CD

     Track |   Start  |  Length  | Start sector | End sector
    ---------------------------------------------------------
        1  |  0:00.00 |  7:16.60 |         0    |    32759
        2  |  7:16.60 |  5:46.20 |     32760    |    58729
        3  | 13:03.05 |  4:57.27 |     58730    |    81031
        4  | 18:00.32 |  6:20.36 |     81032    |   109567
        5  | 24:20.68 |  5:32.01 |    109568    |   134468
        6  | 29:52.69 |  5:20.60 |    134469    |   158528
        7  | 35:13.54 |  4:10.37 |    158529    |   177315
        8  | 39:24.16 |  4:01.02 |    177316    |   195392
        9  | 43:25.18 |  2:30.44 |    195393    |   206686

Track  1

     Filename C:\EAC Rips\Steve Lukather - Transition (2013) - FLAC\01 - Judgement Day.wav

     Pre-gap length  0:00:02.00

     Peak level 98.8 %
     Extraction speed 2.6 X
     Track quality 100.0 %
     Test CRC 45AFC5A3
     Copy CRC 45AFC5A3
     Track not present in AccurateRip database
     Copy OK

Track  2

     Filename C:\EAC Rips\Steve Lukather - Transition (2013) - FLAC\02 - Creep Motel.wav

     Peak level 98.8 %
     Extraction speed 2.4 X
     Track quality 99.9 %
     Test CRC 7A435535
     Copy CRC 7A435535
     Track not present in AccurateRip database
     Copy OK

Track  3

     Filename C:\EAC Rips\Steve Lukather - Transition (2013) - FLAC\03 - Once Again.wav

     Peak level 98.8 %
     Extraction speed 3.2 X
     Track quality 100.0 %
     Test CRC EF622A1A
     Copy CRC EF622A1A
     Track not present in AccurateRip database
     Copy OK

Track  4

     Filename C:\EAC Rips\Steve Lukather - Transition (2013) - FLAC\04 - Right the Wrong.wav

     Pre-gap length  0:00:02.78

     Peak level 98.8 %
     Extraction speed 2.9 X
     Track quality 99.9 %
     Test CRC 630F87ED
     Copy CRC 630F87ED
     Track not present in AccurateRip database
     Copy OK

Track  5

     Filename C:\EAC Rips\Steve Lukather - Transition (2013) - FLAC\05 - Transition.wav

     Peak level 98.8 %
     Extraction speed 3.0 X
     Track quality 99.9 %
     Test CRC F638E608
     Copy CRC F638E608
     Track not present in AccurateRip database
     Copy OK

Track  6

     Filename C:\EAC Rips\Steve Lukather - Transition (2013) - FLAC\06 - Last Man Standing.wav

     Pre-gap length  0:00:01.64

     Peak level 100.0 %
     Extraction speed 4.0 X
     Track quality 100.0 %
     Test CRC 6BAD3D33
     Copy CRC 6BAD3D33
     Track not present in AccurateRip database
     Copy OK

Track  7

     Filename C:\EAC Rips\Steve Lukather - Transition (2013) - FLAC\07 - Do I Stand Alone.wav

     Pre-gap length  0:00:01.00

     Peak level 98.8 %
     Extraction speed 4.1 X
     Track quality 100.0 %
     Test CRC FE091283
     Copy CRC FE091283
     Track not present in AccurateRip database
     Copy OK

Track  8

     Filename C:\EAC Rips\Steve Lukather - Transition (2013) - FLAC\08 - Rest of the World.wav

     Pre-gap length  0:00:00.65

     Peak level 98.8 %
     Extraction speed 3.1 X
     Track quality 99.9 %
     Test CRC D79BEB40
     Copy CRC D79BEB40
     Track not present in AccurateRip database
     Copy OK

Track  9

     Filename C:\EAC Rips\Steve Lukather - Transition (2013) - FLAC\09 - Smile.wav

     Pre-gap length  0:00:02.74

     Peak level 98.8 %
     Extraction speed 4.0 X
     Track quality 100.0 %
     Test CRC 96E77F43
     Copy CRC 96E77F43
     Track not present in AccurateRip database
     Copy OK

None of the tracks are present in the AccurateRip database

No errors occurred

End of status report

---- CUETools DB Plugin V2.1.3

[CTDB TOCID: zogSjELt95ZP0AMCyzqbXkmY2u8-] disk not present in database, Submit result: zogSjELt95ZP0AMCyzqbXkmY2u8- has been uploaded

==== Log checksum 837B6E8A5270A9C744DED9C6700D7CA71B8424F9DCF86E1EA3CD5ADC87299933 ====

Отчёт auCDtect Task manager:

Код:

-----------------------

DON'T MODIFY THIS FILE

-----------------------

PERFORMER: auCDtect Task Manager, ver. 1.5.1RC6 build 1.5.1.7
Copyright (c) 2008-2010 y-soft. All rights reserved
http://y-soft.org

ANALYZER: auCDtect: CD records authenticity detector, version 0.8.2
Copyright (c) 2004 Oleg Berngardt. All rights reserved.
Copyright (c) 2004 Alexander Djourik. All rights reserved.

FILE: 09 - Smile.flac
  Size: 12204772 Hash: 9373B7AA66273309C7B80C7E90C4F618 Accuracy: -m0
  Conclusion: CDDA 100%
  Signature: C842F7DE9F92C960640C6B41EA37BF4634380183
FILE: 08 - Rest of the World.flac
  Size: 28126990 Hash: E770E785FEEF8CFF53EEED043FA2CDFD Accuracy: -m0
  Conclusion: CDDA 100%
  Signature: A96189C9266C12B7551FEBFD69C4819981A9FAF8
FILE: 07 - Do I Stand Alone.flac
  Size: 31318867 Hash: 86FA6525D016797F0EB85A7C0E75BEFE Accuracy: -m0
  Conclusion: CDDA 99%
  Signature: 9E5AE351F290FE264F95E76F4B4137A96B137868
FILE: 06 - Last Man Standing.flac
  Size: 38387777 Hash: B4D158507E82EF0F64A292B56BFA0063 Accuracy: -m0
  Conclusion: CDDA 99%
  Signature: 214885ECCE27C9D6BE1B1A23FD48B91967FC5D15
FILE: 05 - Transition.flac
  Size: 36637771 Hash: A71D9047DA9A579D7FB5FD21FF6C060D Accuracy: -m0
  Conclusion: CDDA 100%
  Signature: F059E4495A34C3FBA021036B2A045F36E5208AE9
FILE: 04 - Right the Wrong.flac
  Size: 44332672 Hash: A40A9B16D867F7BF0208EDC62B03E217 Accuracy: -m0
  Conclusion: CDDA 100%
  Signature: A079AA0C77A5CF2F7CBC54B6B899E2B2DE9112B5
FILE: 03 - Once Again.flac
  Size: 31760159 Hash: 7269AF2B4FE9EA74393F1A8125929140 Accuracy: -m0
  Conclusion: CDDA 100%
  Signature: 2655E57E1D644B48631F4BF04A630667482979D3
FILE: 02 - Creep Motel.flac
  Size: 42653595 Hash: CE1A1702E73C2F124F3258D5F257D99A Accuracy: -m0
  Conclusion: CDDA 100%
  Signature: C870EC9AA5895F3833560EEC476F609AD0F3C945
FILE: 01 - Judgement Day.flac
  Size: 53311207 Hash: 0867677E48A365789B32A9F39D045EE9 Accuracy: -m0
  Conclusion: CDDA 100%
  Signature: 3C10CE47C49E916DD5651766221C793F5B588961


Детали торрента:
Название:Steve Lukather (ex.Toto) - Transition (2013) [FLAC|Lossless]< Rock>
Дата добавления:19 Янв 2013 06:01:29
Размер:304 MB
Раздают:
Качают:0
Форум:Rock (Lossless)

All rights reserved © 2015-2018