TORRENTS43.COM

Скачать Джон Адамс [Мини-сериал] / John Adams [Mini-Series] (7 серий из 7) (2008) BDRip [1080p] ATV3/iPad new


Джон Адамс [Мини-сериал] / John Adams [Mini-Series] (2008) BDRip
Сезон 1 (7 / 7) / Season 1 (7 / 7)
«Join or Die»

8.7/10 | 7.9/10
Общая информация

Год: 2008
Страна: США
Студия: © HBO Films, High Noon Productions, Playtone (США)
Жанр: драма, биография, история
Время: ~ 70 минут серия
Перевод: Многоголосый закадровый (LostFilm)
Субтитры: Вшитые отключаемые
Язык субтитров: Английский
Создатели и актеры

Режиссёр: Том Хупер
Сценарий: Кирк Эллис, Дэвид МакКалло
Продюсер: Дэвид Коутсворт, Фрэнк Дульгер, Кирк Эллис
В ролях: Пол Джаматти, Лора Линни, Джон Доссетт, Стивен Диллэйн, Сара Полли, Сэмюэл Барнетт, Дэвид Морс, Эндрю Скотт, Дэнни Хьюстон, Эбон Мосс-Бакрак

Описание: Мини-сериал о жизни Джона Адамса и первых 50 годах существования Соединенных Штатов. Джон Адамс (30 октября 1735 - 4 июля 1826) - видный деятель Первой американской буржуазной революции, первый вице-президент и второй президент США (1797-1801). Юрист. Вместе с супругой Эбигейл Адамс стал основателем целой династии политиков. Его сын, Джон Куинси Адамс, стал шестым президентом США в 1825.

Дата мировой премьеры: 16 марта 2008
HD 1080p

Видео: H.264, 23.976 fps, ~ 13,7 Мбит/сек, 1920x1080 (16:9)
Аудио:
* ААС 2.0 150 kbps - Русский многоголосый закадровый (LostFilm)
* АС3 5.1 448 kbps - Русский многоголосый закадровый (LostFilm)
* ААС 2.0 144 kbps - Французский
* АС3 5.1 448 kbps - Французский
* ААС 2.0 160 kbps - Английский
* АС3 5.1 448 kbps - Английский

Субтитры:
* 3GPP Text - Английские

Список эпизодов

01: Join or Die / Прими или умри
02: Independence / Независимость
03: Don't Tread on Me / Не дави на меня
04: Reunion / Воссоединение
05: Unite or Die / Объединиться или умереть
06: Unnecessary War/ Ненужная война
07: Peacefield / Peacefield

Media Info

Код: выделить все
Общее
Полное имя                               : /Users/gekkas/Movies/CREATE/JOHN ADAMS/JOHN.ADAMS.E1.1080.m4v
Формат                                   : MPEG-4
Идентификатор кодека                     : M4V
Размер файла                             : 7,70 Гбайт
Продолжительность                        : 1 ч. 10 м.
Режим общего битрейта                    : Переменный
Общий поток                              : 15,6 Мбит/сек
Название фильма                          : Join or Die
Альбом                                   : John Adams
Часть/Положение                          : 1
Трек/Положение                           : 1
Исполнитель                              : Джон Адамс
Жанр                                     : Drama & Mini-Series
Дата записи                              : 2008-03-16T07:00:00Z
Дата кодирования                         : UTC 2013-01-31 18:16:01
Дата пометки                             : UTC 2013-02-03 05:14:57
Правообладатель                          : HBO Films
Обложка                                  : Yes
Примечание                               : «Join or Die»
tvsh                                     : Джон Адамс
tvnn                                     : HBO
tvsn                                     : 1
tves                                     : 1
sonm                                     : Join or Die
soal                                     : John Adams
sosn                                     : Джон Адамс
desc                                     : In an emotionally charged trial John Adams defends the British sentries involved in the Boston Massacre who contend they were provoked into firing on the assembled crowd. John's success brings him offers of positions in the Massachusetts government.
ldes                                     : In an emotionally charged trial John Adams defends the British sentries involved in the Boston Massacre who contend they were provoked into firing on the assembled crowd. John's success brings him offers of positions in the Massachusetts government. But after John Hancock rouses a crowd to tar and feather a representative of the British East India Tea Company and the British respond to the growing unrest with oppressive measures, John instead speaks against the British policies and chooses to represent Massachusetts in the Continental Congress.
hdvd                                     : 2
stik                                     : 10
rtng                                     : 0
cnID                                     : 474236331
xid                                      : Apple:vendor_id:2008-339359-101
iTunMOVI                                 : <?xml version="1.0" encoding="UTF-8"?> / <!DOCTYPE plist PUBLIC "-//Apple//DTD PLIST 1.0//EN" "http://www.apple.com/DTDs/PropertyList-1.0.dtd"> / <plist version="1.0"> / <dict> /   <key>cast</key> /   <array> /     <dict> /       <key>name</key> /       <string>Paul Giamatti</string> /     </dict> /     <dict> /       <key>name</key> /       <string>Laura Linney</string> /     </dict> /   </array> /   <key>directors</key> /   <array> /     <dict> /       <key>name</key> /       <string>Tom Hooper</string> /     </dict> /   </array> /   <key>screenwriters</key> /   <array> /     <dict> /       <key>name</key> /       <string>Kirk Ellis</string> /     </dict> /   </array> / </dict> / </plist>

Видео #1
Идентификатор                            : 1
Формат                                   : AVC
Формат/Информация                        : Advanced Video Codec
Профиль формата                          : High@L4.1
Параметр CABAC формата                   : Да
Параметр ReFrames формата                : 4 кадра
Идентификатор кодека                     : avc1
Идентификатор кодека/Информация          : Advanced Video Coding
Продолжительность                        : 1 ч. 10 м.
Вид битрейта                             : Переменный
Битрейт                                  : 13,7 Мбит/сек
Ширина                                   : 1920 пикселей
Высота                                   : 1080 пикселей
Соотношение сторон                       : 16:9
Режим частоты кадров                     : Переменный
Частота кадров                           : 23,976 кадра/сек
Минимальная частота кадров               : 23,952 кадра/сек
Максимальная частота кадров              : 23,981 кадра/сек
Цветовое пространство                    : YUV
Субдискретизация насыщенности            : 4:2:0
Битовая глубина                          : 8 бит
Тип развёртки                            : Прогрессивная
Бит/(Пиксели*Кадры)                      : 0.276
Размер потока                            : 6,79 Гбайт (88%)
Библиотека кодирования                   : x264 core 129 r2230+696+36 4446aa2 tMod+MixAQ [8-bit@4:2:0 X86_64]
Настройки программы                      : cabac=1 / ref=5 / deblock=1:-3:-3 / analyse=0x3:0x113 / me=umh / subme=11 / psy=1 / fade_compensate=0.00 / psy_rd=0.95:0.15 / mixed_ref=1 / me_range=48 / chroma_me=1 / trellis=2 / 8x8dct=1 / cqm=0 / deadzone=21,11 / fast_pskip=0 / chroma_qp_offset=-3 / threads=18 / lookahead_threads=3 / sliced_threads=0 / nr=0 / decimate=1 / interlaced=0 / bluray_compat=0 / constrained_intra=0 / fgo=0 / bframes=9 / b_pyramid=1 / b_adapt=2 / b_bias=0 / direct=1 / weightb=1 / open_gop=0 / weightp=3 / keyint=250 / keyint_min=23 / scenecut=40 / intra_refresh=0 / rc_lookahead=120 / rc=crf / mbtree=0 / crf=18.0000 / qcomp=0.60 / qpmin=0 / qpmax=69 / qpstep=4 / vbv_maxrate=25000 / vbv_bufsize=25000 / crf_max=0.0 / nal_hrd=none / ip_ratio=1.40 / pb_ratio=1.20 / aq=4 / aq-strength=0.80 / aq-sensitivity=10.00 / aq-ifactor=1.00 / aq-pfactor=1.00 / aq-bfactor=1.00 / aq2=0
Язык                                     : English
Дата кодирования                         : UTC 2013-01-31 18:16:01
Дата пометки                             : UTC 2013-01-31 18:17:58
Коэффициенты матрицы                     : BT.709

Видео #2
Идентификатор                            : 10
Формат                                   : JPEG
Идентификатор кодека                     : jpeg
Продолжительность                        : 1 ч. 10 м.
Duration_LastFrame                       : -9 м. 13 с.
Вид битрейта                             : Переменный
Битрейт                                  : 557 бит/сек
Ширина                                   : 640 пикселей
Высота                                   : 360 пикселей
Соотношение сторон                       : 16:9
Режим частоты кадров                     : Постоянный
Частота кадров                           : 0,002 кадр/сек
Цветовое пространство                    : YUV
Субдискретизация насыщенности            : 4:2:0
Битовая глубина                          : 8 бит
Метод сжатия                             : С потерями
Бит/(Пиксели*Кадры)                      : 1.209
Размер потока                            : 272 Кбайт (0%)
Язык                                     : English
Дата кодирования                         : UTC 2013-01-31 18:21:22
Дата пометки                             : UTC 2013-01-31 18:21:22

Аудио #1
Идентификатор                            : 2
Формат                                   : AAC
Формат/Информация                        : Advanced Audio Codec
Профиль формата                          : LC
Идентификатор кодека                     : 40
Продолжительность                        : 1 ч. 10 м.
Вид битрейта                             : Переменный
Битрейт                                  : 150 Кбит/сек
Максимальный битрейт                     : 233 Кбит/сек
Каналы                                   : 2 канала
Расположение каналов                     : Front: L R
Частота                                  : 48,0 КГц
Метод сжатия                             : С потерями
Задержка видео                           : 83 мс.
Размер потока                            : 76,2 Мбайт (1%)
Язык                                     : Russian
Дата кодирования                         : UTC 2013-01-31 18:16:02
Дата пометки                             : UTC 2013-01-31 18:18:43

Аудио #2
Идентификатор                            : 3
Формат                                   : AC-3
Формат/Информация                        : Audio Coding 3
Расширение режима                        : CM (complete main)
Параметр Endianness формата              : Big
Идентификатор кодека                     : ac-3
Продолжительность                        : 1 ч. 10 м.
Вид битрейта                             : Постоянный
Битрейт                                  : 448 Кбит/сек
Каналы                                   : 6 каналов
Расположение каналов                     : Front: L C R, Side: L R, LFE
Частота                                  : 48,0 КГц
Битовая глубина                          : 16 бит
Метод сжатия                             : С потерями
Задержка видео                           : 83 мс.
Размер потока                            : 227 Мбайт (3%)
Язык                                     : Russian
Дата кодирования                         : UTC 2013-01-31 18:16:02
Дата пометки                             : UTC 2013-01-31 18:19:11

Аудио #3
Идентификатор                            : 4
Формат                                   : AAC
Формат/Информация                        : Advanced Audio Codec
Профиль формата                          : LC
Идентификатор кодека                     : 40
Продолжительность                        : 1 ч. 10 м.
Вид битрейта                             : Переменный
Битрейт                                  : 144 Кбит/сек
Максимальный битрейт                     : 216 Кбит/сек
Каналы                                   : 2 канала
Расположение каналов                     : Front: L R
Частота                                  : 48,0 КГц
Метод сжатия                             : С потерями
Задержка видео                           : 83 мс.
Размер потока                            : 73,0 Мбайт (1%)
Язык                                     : English
Дата кодирования                         : UTC 2013-01-31 18:16:02
Дата пометки                             : UTC 2013-01-31 18:19:42

Аудио #4
Идентификатор                            : 5
Формат                                   : AC-3
Формат/Информация                        : Audio Coding 3
Расширение режима                        : CM (complete main)
Параметр Endianness формата              : Big
Идентификатор кодека                     : ac-3
Продолжительность                        : 1 ч. 10 м.
Вид битрейта                             : Постоянный
Битрейт                                  : 448 Кбит/сек
Каналы                                   : 6 каналов
Расположение каналов                     : Front: L C R, Side: L R, LFE
Частота                                  : 48,0 КГц
Битовая глубина                          : 16 бит
Метод сжатия                             : С потерями
Задержка видео                           : 83 мс.
Размер потока                            : 227 Мбайт (3%)
Язык                                     : English
Дата кодирования                         : UTC 2013-01-31 18:16:02
Дата пометки                             : UTC 2013-01-31 18:20:07

Аудио #5
Идентификатор                            : 6
Формат                                   : AAC
Формат/Информация                        : Advanced Audio Codec
Профиль формата                          : LC
Идентификатор кодека                     : 40
Продолжительность                        : 1 ч. 10 м.
Вид битрейта                             : Переменный
Битрейт                                  : 168 Кбит/сек
Максимальный битрейт                     : 237 Кбит/сек
Каналы                                   : 2 канала
Расположение каналов                     : Front: L R
Частота                                  : 48,0 КГц
Метод сжатия                             : С потерями
Задержка видео                           : 83 мс.
Размер потока                            : 85,3 Мбайт (1%)
Язык                                     : French
Дата кодирования                         : UTC 2013-01-31 18:16:02
Дата пометки                             : UTC 2013-01-31 18:20:38

Аудио #6
Идентификатор                            : 7
Формат                                   : AC-3
Формат/Информация                        : Audio Coding 3
Расширение режима                        : CM (complete main)
Параметр Endianness формата              : Big
Идентификатор кодека                     : ac-3
Продолжительность                        : 1 ч. 10 м.
Вид битрейта                             : Постоянный
Битрейт                                  : 448 Кбит/сек
Каналы                                   : 2 канала
Расположение каналов                     : Front: L R
Частота                                  : 48,0 КГц
Битовая глубина                          : 16 бит
Метод сжатия                             : С потерями
Задержка видео                           : 83 мс.
Размер потока                            : 227 Мбайт (3%)
Язык                                     : French
Дата кодирования                         : UTC 2013-01-31 18:16:02
Дата пометки                             : UTC 2013-01-31 18:21:03

Текст #1
Идентификатор                            : 8
Формат                                   : Timed text
Режим смешивания                         : sbtl
Идентификатор кодека                     : tx3g
Продолжительность                        : 1 ч. 7 м.
Вид битрейта                             : Переменный
Битрейт                                  : 64 бит/сек
Задержка видео                           : 83 мс.
Размер потока                            : 31,6 Кбайт (0%)
Язык                                     : English
Дата кодирования                         : UTC 2013-01-31 18:16:02
Дата пометки                             : UTC 2013-01-31 18:21:03

Текст #2
Идентификатор                            : 9
Формат                                   : Apple text
Идентификатор кодека                     : text
Продолжительность                        : 1 ч. 10 м.
Duration_LastFrame                       : -9 м. 13 с.
Вид битрейта                             : Постоянный
Битрейт                                  : 0 бит/сек
Задержка видео                           : 83 мс.
Размер потока                            : 184 байт (0%)
Язык                                     : English
Дата кодирования                         : UTC 2013-01-31 18:21:03
Дата пометки                             : UTC 2013-01-31 18:21:03

Меню
00:00:00.000                             : Chapter 1
00:10:00.000                             : Chapter 2
00:20:00.000                             : Chapter 3
00:30:00.000                             : Chapter 4
00:40:00.000                             : Chapter 5
00:50:00.000                             : Chapter 6
01:00:00.000                             : Chapter 7
01:10:00.000                             : Chapter 8

x264 Log


x264 [info]: frame I:694 Avg QP:15.17 size:242575
x264 [info]: frame P:22876 Avg QP:16.55 size:107441
x264 [info]: frame B:78254 Avg QP:17.98 size: 59643
x264 [info]: consecutive B-frames: 1.5% 4.3% 6.3% 33.2% 15.0% 26.2% 3.9% 7.1% 1.8% 0.6%
x264 [info]: mb I I16..4: 10.9% 79.7% 9.4%
x264 [info]: mb P I16..4: 2.0% 26.7% 1.1% P16..4: 29.3% 32.2% 7.7% 0.0% 0.0% skip: 0.9%
x264 [info]: mb B I16..4: 0.4% 5.2% 0.1% B16..8: 44.6% 20.2% 2.1% direct: 9.9% skip:17.5% L0:42.8% L1:40.6% BI:16.6%
x264 [info]: 8x8 transform intra:89.9% inter:58.5%
x264 [info]: coded y,uvDC,uvAC intra: 94.4% 81.7% 56.6% inter: 41.9% 23.1% 2.9%
x264 [info]: i16 v,h,dc,p: 7% 4% 14% 75%
x264 [info]: i8 v,h,dc,ddl,ddr,vr,hd,vl,hu: 11% 8% 20% 9% 10% 10% 9% 11% 13%
x264 [info]: i4 v,h,dc,ddl,ddr,vr,hd,vl,hu: 17% 6% 6% 9% 15% 14% 13% 10% 11%
x264 [info]: i8c dc,h,v,p: 39% 28% 20% 13%
x264 [info]: Weighted P-Frames: Y:100.0% UV:10.9%
x264 [info]: ref P L0: 48.0% 11.2% 16.4% 9.6% 3.5% 2.9% 2.6% 1.8% 1.5% 1.1% 0.7% 0.4% 0.2% 0.1% 0.0% 0.0%
x264 [info]: ref B L0: 87.5% 9.3% 3.2%
x264 [info]: ref B L1: 93.4% 6.6%
x264 [info]: kb/s:13738.93



Тэги и обложка

Tags & Cover

Код: выделить все
[URL=http://imageban.ru/show/2013/02/03/835486062147daa2c2a0e22c60234e13/png][IMG=right]http://i3.imageban.ru/thumbs/2013.02.03/835486062147daa2c2a0e22c60234e13.png[/IMG][/URL]
Sort TV Show: Джон Адамс
Sort Album: John Adams
Sort Name: Join or Die
XID: Apple:vendor_id:2008-339359-101
contentID: 474236331
Copyright: HBO Films
Screenwriters: Kirk Ellis
Director: Tom Hooper
Cast: Paul Giamatti, Laura Linney
Long Description: In an emotionally charged trial John Adams defends the British sentries involved in the Boston Massacre who contend they were provoked into firing on the assembled crowd. John's success brings him offers of positions in the Massachusetts government. But after John Hancock rouses a crowd to tar and feather a representative of the British East India Tea Company and the British respond to the growing unrest with oppressive measures, John instead speaks against the British policies and chooses to represent Massachusetts in the Continental Congress.
Description: In an emotionally charged trial John Adams defends the British sentries involved in the Boston Massacre who contend they were provoked into firing on the assembled crowd. John's success brings him offers of positions in the Massachusetts government.
TV Season: 1
TV Network: HBO
TV Episode #: 1
TV Show: Джон Адамс
Disk #: 1/0
Track #: 1/0
Release Date: 2008-03-16T07:00:00Z
Genre: Drama & Mini-Series
Comments: «Join or Die»
Album: John Adams
Artist: Джон Адамс
Name: Join or Die

Thx & source

Релиз от: Релиз группа:



Релиз подготовлен для просмотра на Apple TV, iPad.
Для просмотра данного релиза на компьютере с ОС Windows рекомендуется использовать VLC media player.


В настоящий момент раздача содержит 1-7 серии 1 сезона.

Смотреть Online

http://moonwalk.cc/serial/80417f2078027846dc1f9ce0ffb34439/iframe
Детали торрента:
Название:Джон Адамс [Мини-сериал] / John Adams [Mini-Series] (7 серий из 7) (2008) BDRip [1080p] ATV3/iPad new
Дата добавления:03 Фев 2013 08:54:36
Размер:53,3 GB
Раздают:
Качают:0
Форум:Зарубежное видео HD для устройств Apple

All rights reserved © 2015-2018