TORRENTS43.COM

Скачать Кино (Виктор Цой) - Группа Крови [Groupa Kroovy (Blood Type)] (1989) [FLAC 2.0 24/192|image + .cue (Vinyl-Rip)]<Rock>


Кино (Виктор Цой) - Группа Крови [Groupa Kroovy (Blood Type)] (1989)
Год: 1989
Лейбл: Gold Castle Records
Каталог#: D1-71322
Продолжительность: 00:43:18

Кодек: FLAC
Тип раздачи: image + .cue|24/192 (Vinyl-Rip)
Жанр: Rock
Сканы: В комплекте

Трек лист:

A1. Blood Type 4:45
A2. Shut the Door Behind Me 4:17
A3. War 4:04
A4. Good Night 6:08
A5. We Are All Sick, Mama 4:08
A6. Boshetunmay 4:09
B1. In Our Eyes 3:35
B2. Try To Sing Along 4:36
B3. Hey You, You Better Keep Walking! 3:40
B4. It's Our Time, Our Turn! 3:56
B5. The Legend 4:09

Оцифровка выполнена: bazar
Код класса состояния винила: VG
Устройство воспроизведения: echnics SL-1200MK5
Предварительный усилитель: PS audio GCPH Mod1
АЦП: LynxTwo
Программа-оцифровщик: LynxTwo

Спектр, АЧХ, Уровень записи:

Содержание индексной карты (.CUE):

REM GENRE Rock
REM DATE 1989
REM BAZAR_VINYLRIP
REM Label - Gold Castle Records, US
REM Producer By Joanna Stingray
REM D1-71322 Promo
PERFORMER "Kino"
TITLE "Groupa Kroovy (Blood Type)"
FILE "Кино - Groupa Kroovy (Blood Type).flac" WAVE
TRACK 01 AUDIO
TITLE "Blood Type"
PERFORMER "Kino"
INDEX 01 00:00:00
TRACK 02 AUDIO
TITLE "Shut The Door Behind Me"
PERFORMER "Kino"
INDEX 01 04:45:30
TRACK 03 AUDIO
TITLE "War"
PERFORMER "Kino"
INDEX 01 09:02:00
TRACK 04 AUDIO
TITLE "Good Night"
PERFORMER "Kino"
INDEX 01 13:06:00
TRACK 05 AUDIO
TITLE "We Are All Sick, Mama"
PERFORMER "Kino"
INDEX 01 19:14:00
TRACK 06 AUDIO
TITLE "Boshetunmay"
PERFORMER "Kino"
INDEX 01 23:22:00
TRACK 07 AUDIO
TITLE "In Our Eyes"
PERFORMER "Kino"
INDEX 01 27:31:00
TRACK 08 AUDIO
TITLE "Try To Sing Along"
PERFORMER "Kino"
INDEX 01 31:06:00
TRACK 09 AUDIO
TITLE "Hey You, You Better Keep Walking!"
PERFORMER "Kino"
INDEX 01 35:42:00
TRACK 10 AUDIO
TITLE "It's Our Time, Our Turn!"
PERFORMER "Kino"
INDEX 01 39:22:00
TRACK 11 AUDIO
TITLE "The Legend"
PERFORMER "Kino"
INDEX 01 43:18:30

Media Info:

Код:

Общее
Полное имя                               : D:\Михаил\Музыка\Кино\1988 (1991) г. ''Группа Крови'' (Gold Castle – CA 90068) {USA}\Кино ‎– Groupa Kroovy (Blood Type) (1989)\Кино - Groupa Kroovy (Blood Type).flac
Формат                                   : FLAC
Формат/Информация                        : Free Lossless Audio Codec
Размер файла                             : 1,77 Гбайт
Продолжительность                        : 47 м.
Режим общего битрейта                    : Переменный
Общий поток                              : 5352 Кбит/сек

Аудио
Формат                                   : FLAC
Формат/Информация                        : Free Lossless Audio Codec
Продолжительность                        : 47 м.
Вид битрейта                             : Переменный
Битрейт                                  : 5352 Кбит/сек
Каналы                                   : 2 канала
Частота                                  : 192 КГц
Битовая глубина                          : 24 бит
Размер потока                            : 1,77 Гбайт (100%)
Библиотека кодирования                   : libFLAC 20080709 (UTC 2008-07-09)
Детали торрента:
Название:Кино (Виктор Цой) - Группа Крови [Groupa Kroovy (Blood Type)] (1989) [FLAC 2.0 24/192|image + .cue (Vinyl-Rip)]<Rock>
Дата добавления:03 Фев 2013 09:09:28
Размер:1,79 GB
Раздают:3
Качают:0
Форум:Vinyl-Rip и Hand-Made

All rights reserved © 2015-2018