TORRENTS43.COM

Скачать Скарамуш / La mascara de Scaramouche (1963) DVDRip


Скарамуш / La mascara de Scaramouche (1963) DVDRip
Русское название: Скарамуш
Оригинальное название: La mascara de Scaramouche
Производство: Франция , Италия , Испания / Capitole Films, Compagnia Cinematografica Mondiale (CCM), Fidès, Producciones Benito Perojo S.A.
Год выпуска: 1963
Жанр: Приключения

Описание фильма:
Из Америки во Францию приезжает маркиз Сушиль, который рассказывает Роберу Ле Флеру — молодому, любвеобильному комедианту, тайну его происхождения. Робер, сын герцога Бианкура, убитого неизвестными. Ревнуя Робера к Алисе, фаворитке двора, маркиз де Ла Тур строит козни против актера. Он похищает Диану Сушиль, влюбленную в Робера и отдает приказ изгнать актеров из города. Робер спасает Диану и появляется в разгар торжества де Ла Тура, намеренного вступить в наследные права герцогства…

Режиссер: Антонио Исаси-Исасменди
Актеры: Жерар Баррэ, Мишель Жирардон, Жанна Мария Канале, Иветт Лебон, Альберто де Мендоса, Жорж Риго, Андрес Мехуто, Гонсало Канас, Иран Эори, Рафаэль Дюран, Рафаль Бригуэра, Антонио Градоли, Фернандо Монтес, Ксан дас Болас, Альваро Де Луна, Сантьяго Октанон, Густаво Ре, Анхел Альварес, Хосе Леаль, Хельга Лине

Продолжительность: 01:34:15
Перевод: Профессиональный (многоголосый)
Релиз группа:



Дата мировой премьеры: 23 сентября 1963
Дата выхода DVD релиза: 16 февраля 2012

Видеокодек: Xvid
Битрейт видео: ~1875 Кбит/с
Размер кадра: 704x384
Качество видео: DVDRip
Аудиокодек: AC3 2 ch
Битрейт аудио: 192 Кбит/с

MediaInfo:

Общее
Полное имя : Scaramush.1963.XviD.DVDRip.avi
Формат : AVI
Формат/Информация : Audio Video Interleave
Размер файла : 1,37 Гбайт
Продолжительность : 1 ч. 34 м.
Общий поток : 2077 Кбит/сек
Программа кодирования : VirtualDubMod 1.5.10.2 (build 2540/release)
Библиотека кодирования : VirtualDubMod build 2540/release

Видео
Идентификатор : 0
Формат : MPEG-4 Visual
Профиль формата : Advanced Simple@L5
Параметр BVOP формата : 4
Параметр QPel формата : Нет
Параметр GMC формата : Без точки перехода
Параметр матрицы формата : Default (MPEG)
Идентификатор кодека : XVID
Идентификатор кодека/Подсказка : XviD
Продолжительность : 1 ч. 34 м.
Битрейт : 1875 Кбит/сек
Ширина : 704 пикселя
Высота : 384 пикселя
Соотношение сторон : 1,85:1
Частота кадров : 25,000 кадров/сек
Цветовое пространство : YUV
Субдискретизация насыщенности : 4:2:0
Битовая глубина : 8 бит
Тип развёртки : Прогрессивная
Метод сжатия : С потерями
Бит/(Пиксели*Кадры) : 0.277
Размер потока : 1,23 Гбайт (90%)
Библиотека кодирования : XviD 1.2.1 (UTC 2008-12-04)

Аудио
Идентификатор : 1
Формат : AC-3
Формат/Информация : Audio Coding 3
Расширение режима : CM (complete main)
Параметр Endianness формата : Big
Идентификатор кодека : 2000
Продолжительность : 1 ч. 34 м.
Вид битрейта : Постоянный
Битрейт : 192 Кбит/сек
Каналы : 2 канала
Расположение каналов : Front: L R
Частота : 48,0 КГц
Битовая глубина : 16 бит
Метод сжатия : С потерями
Размер потока : 129 Мбайт (9%)
Выравнивание : Разделение по промежуткам
Продолжительность промежутка : 40 мс. (1,00 видеокадр)
Время предзагрузки промежутка : 500 мс.
Скриншоты:





Время раздачи
Детали торрента:
Название:Скарамуш / La mascara de Scaramouche (1963) DVDRip
Дата добавления:03 Фев 2013 14:24:32
Размер:1,37 GB
Раздают:1
Качают:0
Форум:Зарубежная Классика (HD*Rip/LQ, DVDRip, SATRip, VHSRip)

All rights reserved © 2015-2018